ForoComunidad
Bienvenido a ForoComunidad

Un foro donde podrás descargar todo tipo de contenido totalmente gratis tan solo registrandote , encontraras descargas de películas,juegos pc.aplicaciones android,programas,windows y mucho mas. Te invito a unirte a nuestra comunidad, también puedes compartir con nosotros tu mejor contenido (post)

REGISTRATE Y COMIENZA A DESCARGAR

Fecha y hora actual: Mar Feb 20, 2018 10:48 am

Se encontraron 12 resultados para 5

Atonement [2007] FullHD 1080p [Ing-Lat]




Titulo original: Atonement
Ano: 2007
Duracion: 123 min.
Pais: Reino Unido
Director: Joe Wright
Reparto: Keira Knightley, James McAvoy, Romola Garai, Saoirse Ronan, Vanessa Redgrave, Brenda Blethyn, Harriet Walter, Patrick Kennedy, Benedict Cumberbatch, Juno Temple, Daniel Mays, Jeremie Renier, Michelle Duncan, Gina McKee
Productora: Coproduccion Reino Unido-USA; Working Title Films / Universal Pictures / Studio Canal / Relativity Media
Genero: Romance. Drama. Belico | Drama Romantico. II Guerra Mundial. Cine epico
Sinopsis: En el verano de 1935, Briony Tallis (Saoirse Ronan), una precoz escritora de 13 anos, cambia irremediablemente el curso de varias vidas al acusar a Robbie Turner (James McAvoy), el amante de su hermana Cecilia (Keira Knightley), de un crimen que no ha cometido.
[Tienes que estar registrado y conectado para ver este vínculo]
Trailer
[Tienes que estar registrado y conectado para ver este vínculo]



General
Unique ID : 183454482832810555499676228591899485611 (0x8A040C564F3B22938EB5978525EDA5AB)
Complete name : Atonement (2007) 1080p BDRip Dual.mkv
Format : Matroska
Format version : Version 4 / Version 2
File size : 11,9 GB
Duration : 2 h 2 min
Movie name : Atonement (2007)
Encoded date : UTC 2017-09-15 08:33:27
Writing application : mkvmerge v15.0.0 (Duel with the Devil) 64-bit
Writing library : libebml v1.3.5 + libmatroska v1.4.5
IsTruncated : Yes
Video
ID : 1
Format : AVC
Format/Info : Advanced Video Codec
Format profile : High@L4.1
Format settings, CABAC : Yes
Format settings, ReFrames : 4 frames
Codec ID : V_MPEG4/ISO/AVC
Duration : 2 h 2 min
Nominal bit rate : 11.6 Mb/s
Width : 1 920 pixels
Height : 1 040 pixels
Display aspect ratio : 1.85:1
Frame rate mode : Constant
Frame rate : 23.976 (24000/1001) FPS
Color space : YUV
Chroma subsampling : 4:2:0
Bit depth : 8 bits
Scan type : Progressive
Bits/(Pixel*Frame) : 0.241
Title : MPEG-4 AVC / 1080p / High Profile 4.1 / 11600 kbps / Bluray
Writing library : x264 core 120 r2164 da19765
Default : Yes
Forced : No
Audio [Tienes que estar registrado y conectado para ver este vínculo]
ID : 2
Format : DTS
Format/Info : Digital Theater Systems
Mode : 16
Format settings, Endianness : Big
Codec ID : A_DTS
Duration : 2 h 2 min
Bit rate mode : Constant
Bit rate : 1 509 kb/s
Channel(s) : 6 channels
Channel positions : Front: L C R, Side: L R, LFE
Sampling rate : 48.0 kHz
Frame rate : 93.750 FPS (512 spf)
Bit depth : 24 bits
Compression mode : Lossy
Stream size : 1.30 GiB
Title : DTS / 5.1 / 1509 kbps / 48kHz / Bluray
Language : English
Default : No
Forced : No
Audio [Tienes que estar registrado y conectado para ver este vínculo]
ID : 3
Format : DTS
Format/Info : Digital Theater Systems
Mode : 16
Format settings, Endianness : Big
Codec ID : A_DTS
Duration : 2 h 2 min
Bit rate mode : Constant
Bit rate : 768 kb/s
Channel(s) : 6 channels
Channel positions : Front: L C R, Side: L R, LFE
Sampling rate : 48.0 kHz
Frame rate : 93.750 FPS (512 spf)
Bit depth : 24 bits
Compression mode : Lossy
Stream size : 675 MiB
Title : DTS / 5.1 / 768 kbps / 48kHz / Bluray
Language : Spanish latin
Default : Yes
Forced : No
Text [Tienes que estar registrado y conectado para ver este vínculo]
ID : 4
Format : PGS
Muxing mode : zlib
Codec ID : S_HDMV/PGS
Codec ID/Info : Picture based subtitle format used on BDs/HD-DVDs
Title :(CC) / PGS / Bluray
Language : English
Default : No
Forced : No
Text [Tienes que estar registrado y conectado para ver este vínculo]
ID : 5
Format : UTF-8
Codec ID : S_TEXT/UTF8
Codec ID/Info : UTF-8 Plain Text
Title : (CC) / SubRip / Bluray
Language : English
Default : No
Forced : No
Text [Tienes que estar registrado y conectado para ver este vínculo]
ID : 6
Format : PGS
Muxing mode : zlib
Codec ID : S_HDMV/PGS
Codec ID/Info : Picture based subtitle format used on BDs/HD-DVDs
Title : PGS / Bluray
Language : Spanish latin
Default : No
Forced : No
Text [Tienes que estar registrado y conectado para ver este vínculo]
ID : 7
Format : UTF-8
Codec ID : S_TEXT/UTF8
Codec ID/Info : UTF-8 Plain Text
Title : SubRip / Bluray
Language : Spanish latin
Default : No
Forced : No
Text [Tienes que estar registrado y conectado para ver este vínculo]
ID : 8
Format : PGS
Muxing mode : zlib
Codec ID : S_HDMV/PGS
Codec ID/Info : Picture based subtitle format used on BDs/HD-DVDs
Title : (Forz) / PGS / Bluray
Language : Spanish latin
Default : No
Forced : No
Text [Tienes que estar registrado y conectado para ver este vínculo]
ID : 9
Format : UTF-8
Codec ID : S_TEXT/UTF8
Codec ID/Info : UTF-8 Plain Text
Title : (Forz) / SubRip / Bluray
Language : Spanish latin
Default : Yes
Forced : No







Buy Premium Account To Get High Speed Download
[Tienes que estar registrado y conectado para ver este vínculo]
por campitoso
el Mar Oct 31, 2017 4:32 pm
 
Buscar en: Descargar Peliculas
Argumento: Atonement [2007] FullHD 1080p [Ing-Lat]
Respuestas: 0
Vistos: 47

Jerry.Before.Seinfeld.2017.1080p.NF.WEBRip.DD5.1.x264-monkee [Ing]




Titulo original Jerry Before Seinfeld (TV)
Año 2017
Tiempo de ejecución 60 minutos
País Estados Unidos
Guionista Jerry Seinfeld
Emitir Jerry Seinfeld
Productor Netflix
Género Comedia | Película de televisión. Levántate
Sinopsis / Trama
El primer especial de pie de Seinfeld para Netflix. De acuerdo con The Hollywood Reporter, el especial verá al comediante regresar al famoso The Comic Strip de Nueva York, el club que ayudó a lanzar su carrera. El conjunto se intercalará con material nunca antes visto, incluida una extensa biblioteca de notas legales que contiene todos los chistes que Seinfeld ha escrito desde 1975, así como videos de la niñez. Como parte de su set, Seinfeld interpretará los chistes que ayudaron a encender su carrera.
[Tienes que estar registrado y conectado para ver este vínculo]
Trailer
[Tienes que estar registrado y conectado para ver este vínculo]



Video
ID 1
Format AVC
Format/Info Advanced Video Codec
Format profile Main@L4
Format settings, CABAC Yes
Format settings, ReFrames 3 frames
Codec ID V_MPEG4/ISO/AVC
Duration 1 h 1 min
Bit rate mode Variable
Bit rate 6 810 kb/s
Maximum bit rate 10.2 Mb/s
Width 1 920 pixels
Height 1 080 pixels
Display aspect ratio 16:9
Frame rate mode Constant
Frame rate 23.976 (24000/1001) FPS
Color space YUV
Chroma subsampling 4:2:0
Bit depth 8 bits
Scan type Progressive
Bits/(Pixel*Frame) 0.137
Stream size 2.93 GiB (95%)
Writing library x264 core 118
Default Yes
Forced No
Audio
ID 2
Format AC-3
Format/Info Audio Coding 3
Format settings, Endianness Big
Codec ID A_AC3
Duration 1 h 1 min
Bit rate mode Constant
Bit rate 384 kb/s
Channel(s) 6 channels
Channel positions Front: L C R, Side: L R, LFE
Sampling rate 48.0 kHz
Frame rate 31.250 FPS (1536 spf)
Bit depth 16 bits
Compression mode Lossy
Stream size 169 MiB (5%)
Language English
Service kind Complete Main
Default Yes
Forced No

Text [Tienes que estar registrado y conectado para ver este vínculo]
ID 3
Format UTF-8
Codec ID S_TEXT/UTF8
Codec ID/Info UTF-8 Plain Text
Duration 38 s 497 ms
Bit rate 147 b/s
Count of elements 11
Stream size 711 Bytes (0%)
Title Forced
Language English
Default Yes
Forced Yes

Text [Tienes que estar registrado y conectado para ver este vínculo]
ID 4
Format UTF-8
Codec ID S_TEXT/UTF8
Codec ID/Info UTF-8 Plain Text
Duration 1 h 0 min
Bit rate 117 b/s
Count of elements 1414
Stream size 51.7 KiB (0%)
Title SDH
Language English
Default No
Forced No

Text [Tienes que estar registrado y conectado para ver este vínculo]
ID 5
Format UTF-8
Codec ID S_TEXT/UTF8
Codec ID/Info UTF-8 Plain Text
Duration 1 h 1 min
Bit rate 180 b/s
Count of elements 1141
Stream size 81.4 KiB (0%)
Language Arabic
Default No
Forced No

Text [Tienes que estar registrado y conectado para ver este vínculo]
ID 6
Format UTF-8
Codec ID S_TEXT/UTF8
Codec ID/Info UTF-8 Plain Text
Duration 1 h 1 min
Bit rate 96 b/s
Count of elements 948
Stream size 43.5 KiB (0%)
Language Danish
Default No
Forced No

Text [Tienes que estar registrado y conectado para ver este vínculo]
ID 7
Format UTF-8
Codec ID S_TEXT/UTF8
Codec ID/Info UTF-8 Plain Text
Duration 1 h 1 min
Bit rate 92 b/s
Count of elements 1135
Stream size 41.5 KiB (0%)
Language German
Default No
Forced No

Text [Tienes que estar registrado y conectado para ver este vínculo]
ID 8
Format UTF-8
Codec ID S_TEXT/UTF8
Codec ID/Info UTF-8 Plain Text
Duration 1 h 0 min
Bit rate 181 b/s
Count of elements 1125
Stream size 79.8 KiB (0%)
Language Greek
Default No
Forced No

Text [Tienes que estar registrado y conectado para ver este vínculo]
ID 9
Format UTF-8
Codec ID S_TEXT/UTF8
Codec ID/Info UTF-8 Plain Text
Duration 1 h 1 min
Bit rate 90 b/s
Count of elements 1135
Stream size 40.8 KiB (0%)
Language Spanish
Default No
Forced No

Text [Tienes que estar registrado y conectado para ver este vínculo]
ID 10
Format UTF-8
Codec ID S_TEXT/UTF8
Codec ID/Info UTF-8 Plain Text
Duration 1 h 0 min
Bit rate 96 b/s
Count of elements 1134
Stream size 42.4 KiB (0%)
Language Spanish
Default No
Forced No

Text [Tienes que estar registrado y conectado para ver este vínculo]
ID 11
Format UTF-8
Codec ID S_TEXT/UTF8
Codec ID/Info UTF-8 Plain Text
Duration 1 h 0 min
Bit rate 94 b/s
Count of elements 947
Stream size 41.8 KiB (0%)
Language Finnish
Default No
Forced No

Text [Tienes que estar registrado y conectado para ver este vínculo]
ID 12
Format UTF-8
Codec ID S_TEXT/UTF8
Codec ID/Info UTF-8 Plain Text
Duration 1 h 1 min
Bit rate 100 b/s
Count of elements 1135
Stream size 45.1 KiB (0%)
Language French
Default No
Forced No

Text [Tienes que estar registrado y conectado para ver este vínculo]
ID 13
Format UTF-8
Codec ID S_TEXT/UTF8
Codec ID/Info UTF-8 Plain Text
Duration 1 h 0 min
Bit rate 163 b/s
Count of elements 1132
Stream size 72.3 KiB (0%)
Language Hebrew
Default No
Forced No

Text [Tienes que estar registrado y conectado para ver este vínculo]
ID 14
Format UTF-8
Codec ID S_TEXT/UTF8
Codec ID/Info UTF-8 Plain Text
Duration 1 h 1 min
Bit rate 88 b/s
Count of elements 1135
Stream size 39.9 KiB (0%)
Language Italian
Default No
Forced No

Text [Tienes que estar registrado y conectado para ver este vínculo]
ID 15
Format UTF-8
Codec ID S_TEXT/UTF8
Codec ID/Info UTF-8 Plain Text
Duration 1 h 1 min
Bit rate 82 b/s
Count of elements 885
Stream size 37.2 KiB (0%)
Language Japanese
Default No
Forced No

Text [Tienes que estar registrado y conectado para ver este vínculo]
ID 16
Format UTF-8
Codec ID S_TEXT/UTF8
Codec ID/Info UTF-8 Plain Text
Duration 1 h 0 min
Bit rate 122 b/s
Count of elements 1226
Stream size 53.9 KiB (0%)
Language Korean
Default No
Forced No

Text [Tienes que estar registrado y conectado para ver este vínculo]
ID 17
Format UTF-8
Codec ID S_TEXT/UTF8
Codec ID/Info UTF-8 Plain Text
Duration 1 h 1 min
Bit rate 91 b/s
Count of elements 839
Stream size 41.1 KiB (0%)
Language Norwegian Bokmal
Default No
Forced No

Text [Tienes que estar registrado y conectado para ver este vínculo]
ID 18
Format UTF-8
Codec ID S_TEXT/UTF8
Codec ID/Info UTF-8 Plain Text
Duration 1 h 1 min
Bit rate 93 b/s
Count of elements 1004
Stream size 42.1 KiB (0%)
Language Dutch
Default No
Forced No

Text [Tienes que estar registrado y conectado para ver este vínculo]
ID 19
Format UTF-8
Codec ID S_TEXT/UTF8
Codec ID/Info UTF-8 Plain Text
Duration 1 h 1 min
Bit rate 82 b/s
Count of elements 1134
Stream size 37.3 KiB (0%)
Language Polish
Default No
Forced No

Text [Tienes que estar registrado y conectado para ver este vínculo]
ID 20
Format UTF-8
Codec ID S_TEXT/UTF8
Codec ID/Info UTF-8 Plain Text
Duration 1 h 1 min
Bit rate 96 b/s
Count of elements 1135
Stream size 43.3 KiB (0%)
Language Portuguese
Default No
Forced No

Text [Tienes que estar registrado y conectado para ver este vínculo]
ID 21
Format UTF-8
Codec ID S_TEXT/UTF8
Codec ID/Info UTF-8 Plain Text
Duration 1 h 1 min
Bit rate 92 b/s
Count of elements 1081
Stream size 41.6 KiB (0%)
Title Brazilian
Language Portuguese
Default No
Forced No

Text [Tienes que estar registrado y conectado para ver este vínculo]
ID 22
Format UTF-8
Codec ID S_TEXT/UTF8
Codec ID/Info UTF-8 Plain Text
Duration 1 h 1 min
Bit rate 101 b/s
Count of elements 1126
Stream size 45.8 KiB (0%)
Language Romanian
Default No
Forced No

Text [Tienes que estar registrado y conectado para ver este vínculo]
ID 23
Format UTF-8
Codec ID S_TEXT/UTF8
Codec ID/Info UTF-8 Plain Text
Duration 1 h 1 min
Bit rate 85 b/s
Count of elements 769
Stream size 38.6 KiB (0%)
Language Swedish
Default No
Forced No

Text [Tienes que estar registrado y conectado para ver este vínculo]
ID 24
Format UTF-8
Codec ID S_TEXT/UTF8
Codec ID/Info UTF-8 Plain Text
Duration 1 h 1 min
Bit rate 236 b/s
Count of elements 1141
Stream size 106 KiB (0%)
Language Thai
Default No
Forced No

Text [Tienes que estar registrado y conectado para ver este vínculo]
ID 25
Format UTF-8
Codec ID S_TEXT/UTF8
Codec ID/Info UTF-8 Plain Text
Duration 1 h 1 min
Bit rate 99 b/s
Count of elements 1091
Stream size 44.9 KiB (0%)
Language Turkish
Default No
Forced No

Text [Tienes que estar registrado y conectado para ver este vínculo]
ID 26
Format UTF-8
Codec ID S_TEXT/UTF8
Codec ID/Info UTF-8 Plain Text
Duration 1 h 1 min
Bit rate 89 b/s
Count of elements 1141
Stream size 40.2 KiB (0%)
Title Simplified
Language Chinese
Default No
Forced No

Text [Tienes que estar registrado y conectado para ver este vínculo]
ID 27
Format UTF-8
Codec ID S_TEXT/UTF8
Codec ID/Info UTF-8 Plain Text
Duration 1 h 1 min
Bit rate 90 b/s
Count of elements 1141
Stream size 40.5 KiB (0%)
Title Traditional
Language Chinese
Default No
Forced No





Buy Premium Account To Get High Speed Download
[Tienes que estar registrado y conectado para ver este vínculo]
por campitoso
el Dom Oct 29, 2017 8:00 am
 
Buscar en: Descargar Peliculas
Argumento: Jerry.Before.Seinfeld.2017.1080p.NF.WEBRip.DD5.1.x264-monkee [Ing]
Respuestas: 0
Vistos: 59

Weather Report Discography [1971-1986]




Weather Report - Discography (1971-1986) + Extras
16 CDs | Release: 1971-1986 | MP3 320 Kpbs | 44.1 Khz, Joint-Stereo | 2.31 GB
Genre: Jazz



ALBUM
[Tienes que estar registrado y conectado para ver este vínculo] Weather Report (1971)

[Tienes que estar registrado y conectado para ver este vínculo] I Sing The Body Electric (1972)

[Tienes que estar registrado y conectado para ver este vínculo] Live in Tokyo (1972) 2CD

[Tienes que estar registrado y conectado para ver este vínculo] Sweetnighter (1973)

[Tienes que estar registrado y conectado para ver este vínculo] Mysterious Traveller (1974)

[Tienes que estar registrado y conectado para ver este vínculo] Tale Spinnin (1975)

[Tienes que estar registrado y conectado para ver este vínculo] Black Market (1976)

[Tienes que estar registrado y conectado para ver este vínculo] Heavy Weather (1977)

[Tienes que estar registrado y conectado para ver este vínculo] Mr. Gone (1978)

[Tienes que estar registrado y conectado para ver este vínculo] 8.30 (1979) 2CD

[Tienes que estar registrado y conectado para ver este vínculo] Night Passage (1980)

[Tienes que estar registrado y conectado para ver este vínculo] Weather Report (1982)

[Tienes que estar registrado y conectado para ver este vínculo] Procession (1983)

[Tienes que estar registrado y conectado para ver este vínculo] Domino Theory (1984)

[Tienes que estar registrado y conectado para ver este vínculo] Sportin Life (1985)

[Tienes que estar registrado y conectado para ver este vínculo] This Is This (1986)



[url]
[Tienes que estar registrado y conectado para ver este vínculo]
[Tienes que estar registrado y conectado para ver este vínculo]
[Tienes que estar registrado y conectado para ver este vínculo]
[/url]
[url]
[Tienes que estar registrado y conectado para ver este vínculo]
[Tienes que estar registrado y conectado para ver este vínculo]
[Tienes que estar registrado y conectado para ver este vínculo]
[/url]
por campitoso
el Lun Oct 23, 2017 9:09 am
 
Buscar en: Música & MP3
Argumento: Weather Report Discography [1971-1986]
Respuestas: 0
Vistos: 47

Uriah Heep Discography [1970-1976]




Uriah Heep - Discography (1970-1976) [Dave Byron Years] & Extras
10 Albums | Release: 1970-1976 | MP3 320 Kpbs | 44.1 Khz, Joint-Stereo | 1.08 GB
Genre: Rock



ALBUM
[Tienes que estar registrado y conectado para ver este vínculo] ...Very 'Eavy ...Very 'Umble (1970)

[Tienes que estar registrado y conectado para ver este vínculo] Salisbury (1971)

[Tienes que estar registrado y conectado para ver este vínculo] Look at Yourself (1971)

[Tienes que estar registrado y conectado para ver este vínculo] Demons and Wizards (1972)

[Tienes que estar registrado y conectado para ver este vínculo] The Magician's Birthday (1972)

[Tienes que estar registrado y conectado para ver este vínculo] Live: January '73 (1973)

[Tienes que estar registrado y conectado para ver este vínculo] Sweet Freedom (1973)

[Tienes que estar registrado y conectado para ver este vínculo] Wonderworld (1974)

[Tienes que estar registrado y conectado para ver este vínculo] Return to Fantasy (1975)

[Tienes que estar registrado y conectado para ver este vínculo] High and Mighty (1976)


Buy Premium Account To Get High Speed Download

[Tienes que estar registrado y conectado para ver este vínculo]
por campitoso
el Dom Oct 22, 2017 7:28 pm
 
Buscar en: Música & MP3
Argumento: Uriah Heep Discography [1970-1976]
Respuestas: 0
Vistos: 45

Steely Dan, Donald Fagen, Walter Becker Discography [1972-2012]




Steely Dan, Donald Fagen, Walter Becker - Discography (1972-2012)
16 CDs | Release: 1972-2012 | MP3 320 Kpbs | 44.1 Khz, Joint-Stereo | 1.27 GB
Genre: Rock



ALBUM
[Tienes que estar registrado y conectado para ver este vínculo] Can't Buy A Thrill (1972)
[Tienes que estar registrado y conectado para ver este vínculo] Countdown To Ecstasy (1973)
[Tienes que estar registrado y conectado para ver este vínculo] Pretzel Logic (1974)
[Tienes que estar registrado y conectado para ver este vínculo] Katy Lied (1975)
[Tienes que estar registrado y conectado para ver este vínculo] The Royal Scam (1976)
[Tienes que estar registrado y conectado para ver este vínculo] Aja (1976)
[Tienes que estar registrado y conectado para ver este vínculo] Gaucho (1980)
[Tienes que estar registrado y conectado para ver este vínculo] Alive In America (1995)
[Tienes que estar registrado y conectado para ver este vínculo] Two Against Nature (2000)
[Tienes que estar registrado y conectado para ver este vínculo] Everything Must Go (2003)

&
Donald Fagen:

[Tienes que estar registrado y conectado para ver este vínculo] The Nightfly (1982)
[Tienes que estar registrado y conectado para ver este vínculo] Kamakiriad (1993)
[Tienes que estar registrado y conectado para ver este vínculo] Morph The Cat (2006)
[Tienes que estar registrado y conectado para ver este vínculo] Sunken Condos (2012)

&
Walter Becker:

[Tienes que estar registrado y conectado para ver este vínculo] 11 Tracks of Whack (1994)
[Tienes que estar registrado y conectado para ver este vínculo] Circus Money (2008)


Buy Premium Account To Get High Speed Download
[Tienes que estar registrado y conectado para ver este vínculo]
por campitoso
el Dom Oct 22, 2017 1:26 pm
 
Buscar en: Música & MP3
Argumento: Steely Dan, Donald Fagen, Walter Becker Discography [1972-2012]
Respuestas: 0
Vistos: 45

Uriah Heep Discography [1970-1976]




Uriah Heep - Discography (1970-1976) [Dave Byron Years] & Extras
10 Albums | Release: 1970-1976 | MP3 320 Kpbs | 44.1 Khz, Joint-Stereo | 1.08 GB
Genre: Rock


ALBUM
[Tienes que estar registrado y conectado para ver este vínculo] ...Very 'Eavy ...Very 'Umble (1970)

[Tienes que estar registrado y conectado para ver este vínculo] Salisbury (1971)

[Tienes que estar registrado y conectado para ver este vínculo] Look at Yourself (1971)

[Tienes que estar registrado y conectado para ver este vínculo] Demons and Wizards (1972)

[Tienes que estar registrado y conectado para ver este vínculo] The Magician's Birthday (1972)

[Tienes que estar registrado y conectado para ver este vínculo] Live: January '73 (1973)

[Tienes que estar registrado y conectado para ver este vínculo] Sweet Freedom (1973)

[Tienes que estar registrado y conectado para ver este vínculo] Wonderworld (1974)

[Tienes que estar registrado y conectado para ver este vínculo] Return to Fantasy (1975)

[Tienes que estar registrado y conectado para ver este vínculo] High and Mighty (1976)


Buy Premium Account To Get High Speed Download

[Tienes que estar registrado y conectado para ver este vínculo]
por campitoso
el Jue Oct 12, 2017 5:13 pm
 
Buscar en: Música & MP3
Argumento: Uriah Heep Discography [1970-1976]
Respuestas: 0
Vistos: 57

Steely Dan, Donald Fagen, Walter Becker Discography [1972-2012]




Steely Dan, Donald Fagen, Walter Becker - Discography (1972-2012)
16 CDs | Release: 1972-2012 | MP3 320 Kpbs | 44.1 Khz, Joint-Stereo | 1.27 GB
Genre: Rock


ALBUM
[Tienes que estar registrado y conectado para ver este vínculo] Can't Buy A Thrill (1972)
[Tienes que estar registrado y conectado para ver este vínculo] Countdown To Ecstasy (1973)
[Tienes que estar registrado y conectado para ver este vínculo] Pretzel Logic (1974)
[Tienes que estar registrado y conectado para ver este vínculo] Katy Lied (1975)
[Tienes que estar registrado y conectado para ver este vínculo] The Royal Scam (1976)
[Tienes que estar registrado y conectado para ver este vínculo] Aja (1976)
[Tienes que estar registrado y conectado para ver este vínculo] Gaucho (1980)
[Tienes que estar registrado y conectado para ver este vínculo] Alive In America (1995)
[Tienes que estar registrado y conectado para ver este vínculo] Two Against Nature (2000)
[Tienes que estar registrado y conectado para ver este vínculo] Everything Must Go (2003)

&
Donald Fagen:

[Tienes que estar registrado y conectado para ver este vínculo] The Nightfly (1982)
[Tienes que estar registrado y conectado para ver este vínculo] Kamakiriad (1993)
[Tienes que estar registrado y conectado para ver este vínculo] Morph The Cat (2006)
[Tienes que estar registrado y conectado para ver este vínculo] Sunken Condos (2012)

&
Walter Becker:

[Tienes que estar registrado y conectado para ver este vínculo] 11 Tracks of Whack (1994)
[Tienes que estar registrado y conectado para ver este vínculo] Circus Money (2008)


Buy Premium Account To Get High Speed Download
[Tienes que estar registrado y conectado para ver este vínculo]
por campitoso
el Jue Oct 12, 2017 9:53 am
 
Buscar en: Música & MP3
Argumento: Steely Dan, Donald Fagen, Walter Becker Discography [1972-2012]
Respuestas: 0
Vistos: 56

Weather Report Discography [1971-1986]




Weather Report - Discography (1971-1986) + Extras
16 CDs | Release: 1971-1986 | MP3 320 Kpbs | 44.1 Khz, Joint-Stereo | 2.31 GB
Genre: Jazz


ALBUM
[Tienes que estar registrado y conectado para ver este vínculo] Weather Report (1971)

[Tienes que estar registrado y conectado para ver este vínculo] I Sing The Body Electric (1972)

[Tienes que estar registrado y conectado para ver este vínculo] Live in Tokyo (1972) 2CD

[Tienes que estar registrado y conectado para ver este vínculo] Sweetnighter (1973)

[Tienes que estar registrado y conectado para ver este vínculo] Mysterious Traveller (1974)

[Tienes que estar registrado y conectado para ver este vínculo] Tale Spinnin (1975)

[Tienes que estar registrado y conectado para ver este vínculo] Black Market (1976)

[Tienes que estar registrado y conectado para ver este vínculo] Heavy Weather (1977)

[Tienes que estar registrado y conectado para ver este vínculo] Mr. Gone (1978)

[Tienes que estar registrado y conectado para ver este vínculo] 8.30 (1979) 2CD

[Tienes que estar registrado y conectado para ver este vínculo] Night Passage (1980)

[Tienes que estar registrado y conectado para ver este vínculo] Weather Report (1982)

[Tienes que estar registrado y conectado para ver este vínculo] Procession (1983)

[Tienes que estar registrado y conectado para ver este vínculo] Domino Theory (1984)

[Tienes que estar registrado y conectado para ver este vínculo] Sportin Life (1985)

[Tienes que estar registrado y conectado para ver este vínculo] This Is This (1986)



[url]
[Tienes que estar registrado y conectado para ver este vínculo]
[Tienes que estar registrado y conectado para ver este vínculo]
[Tienes que estar registrado y conectado para ver este vínculo]
[/url]
[url]
[Tienes que estar registrado y conectado para ver este vínculo]
[Tienes que estar registrado y conectado para ver este vínculo]
[Tienes que estar registrado y conectado para ver este vínculo]
[/url]
[url]
[Tienes que estar registrado y conectado para ver este vínculo]
[Tienes que estar registrado y conectado para ver este vínculo]
[Tienes que estar registrado y conectado para ver este vínculo]
[/url]
por campitoso
el Dom Oct 08, 2017 3:59 am
 
Buscar en: Música & MP3
Argumento: Weather Report Discography [1971-1986]
Respuestas: 0
Vistos: 61

Atonement [2007] FullHD 1080p [Ing-Lat]




Titulo original: Atonement
Ano: 2007
Duracion: 123 min.
Pais: Reino Unido
Director: Joe Wright
Reparto: Keira Knightley, James McAvoy, Romola Garai, Saoirse Ronan, Vanessa Redgrave, Brenda Blethyn, Harriet Walter, Patrick Kennedy, Benedict Cumberbatch, Juno Temple, Daniel Mays, Jeremie Renier, Michelle Duncan, Gina McKee
Productora: Coproduccion Reino Unido-USA; Working Title Films / Universal Pictures / Studio Canal / Relativity Media
Genero: Romance. Drama. Belico | Drama Romantico. II Guerra Mundial. Cine epico
Sinopsis: En el verano de 1935, Briony Tallis (Saoirse Ronan), una precoz escritora de 13 anos, cambia irremediablemente el curso de varias vidas al acusar a Robbie Turner (James McAvoy), el amante de su hermana Cecilia (Keira Knightley), de un crimen que no ha cometido.
[Tienes que estar registrado y conectado para ver este vínculo]
Trailer



General
Unique ID : 183454482832810555499676228591899485611 (0x8A040C564F3B22938EB5978525EDA5AB)
Complete name : Atonement (2007) 1080p BDRip Dual.mkv
Format : Matroska
Format version : Version 4 / Version 2
File size : 11,9 GB
Duration : 2 h 2 min
Movie name : Atonement (2007)
Encoded date : UTC 2017-09-15 08:33:27
Writing application : mkvmerge v15.0.0 (Duel with the Devil) 64-bit
Writing library : libebml v1.3.5 + libmatroska v1.4.5
IsTruncated : Yes
Video
ID : 1
Format : AVC
Format/Info : Advanced Video Codec
Format profile : High@L4.1
Format settings, CABAC : Yes
Format settings, ReFrames : 4 frames
Codec ID : V_MPEG4/ISO/AVC
Duration : 2 h 2 min
Nominal bit rate : 11.6 Mb/s
Width : 1 920 pixels
Height : 1 040 pixels
Display aspect ratio : 1.85:1
Frame rate mode : Constant
Frame rate : 23.976 (24000/1001) FPS
Color space : YUV
Chroma subsampling : 4:2:0
Bit depth : 8 bits
Scan type : Progressive
Bits/(Pixel*Frame) : 0.241
Title : MPEG-4 AVC / 1080p / High Profile 4.1 / 11600 kbps / Bluray
Writing library : x264 core 120 r2164 da19765
Default : Yes
Forced : No
Audio [Tienes que estar registrado y conectado para ver este vínculo]
ID : 2
Format : DTS
Format/Info : Digital Theater Systems
Mode : 16
Format settings, Endianness : Big
Codec ID : A_DTS
Duration : 2 h 2 min
Bit rate mode : Constant
Bit rate : 1 509 kb/s
Channel(s) : 6 channels
Channel positions : Front: L C R, Side: L R, LFE
Sampling rate : 48.0 kHz
Frame rate : 93.750 FPS (512 spf)
Bit depth : 24 bits
Compression mode : Lossy
Stream size : 1.30 GiB
Title : DTS / 5.1 / 1509 kbps / 48kHz / Bluray
Language : English
Default : No
Forced : No
Audio [Tienes que estar registrado y conectado para ver este vínculo]
ID : 3
Format : DTS
Format/Info : Digital Theater Systems
Mode : 16
Format settings, Endianness : Big
Codec ID : A_DTS
Duration : 2 h 2 min
Bit rate mode : Constant
Bit rate : 768 kb/s
Channel(s) : 6 channels
Channel positions : Front: L C R, Side: L R, LFE
Sampling rate : 48.0 kHz
Frame rate : 93.750 FPS (512 spf)
Bit depth : 24 bits
Compression mode : Lossy
Stream size : 675 MiB
Title : DTS / 5.1 / 768 kbps / 48kHz / Bluray
Language : Spanish latin
Default : Yes
Forced : No
Text [Tienes que estar registrado y conectado para ver este vínculo]
ID : 4
Format : PGS
Muxing mode : zlib
Codec ID : S_HDMV/PGS
Codec ID/Info : Picture based subtitle format used on BDs/HD-DVDs
Title :(CC) / PGS / Bluray
Language : English
Default : No
Forced : No
Text [Tienes que estar registrado y conectado para ver este vínculo]
ID : 5
Format : UTF-8
Codec ID : S_TEXT/UTF8
Codec ID/Info : UTF-8 Plain Text
Title : (CC) / SubRip / Bluray
Language : English
Default : No
Forced : No
Text [Tienes que estar registrado y conectado para ver este vínculo]
ID : 6
Format : PGS
Muxing mode : zlib
Codec ID : S_HDMV/PGS
Codec ID/Info : Picture based subtitle format used on BDs/HD-DVDs
Title : PGS / Bluray
Language : Spanish latin
Default : No
Forced : No
Text [Tienes que estar registrado y conectado para ver este vínculo]
ID : 7
Format : UTF-8
Codec ID : S_TEXT/UTF8
Codec ID/Info : UTF-8 Plain Text
Title : SubRip / Bluray
Language : Spanish latin
Default : No
Forced : No
Text [Tienes que estar registrado y conectado para ver este vínculo]
ID : 8
Format : PGS
Muxing mode : zlib
Codec ID : S_HDMV/PGS
Codec ID/Info : Picture based subtitle format used on BDs/HD-DVDs
Title : (Forz) / PGS / Bluray
Language : Spanish latin
Default : No
Forced : No
Text [Tienes que estar registrado y conectado para ver este vínculo]
ID : 9
Format : UTF-8
Codec ID : S_TEXT/UTF8
Codec ID/Info : UTF-8 Plain Text
Title : (Forz) / SubRip / Bluray
Language : Spanish latin
Default : Yes
Forced : No







[Tienes que estar registrado y conectado para ver este vínculo]
por campitoso
el Vie Oct 06, 2017 8:39 am
 
Buscar en: Descargar Peliculas
Argumento: Atonement [2007] FullHD 1080p [Ing-Lat]
Respuestas: 0
Vistos: 49

Weather Report Discography [1971-1986]




Weather Report - Discography (1971-1986) + Extras
16 CDs | Release: 1971-1986 | MP3 320 Kpbs | 44.1 Khz, Joint-Stereo | 2.31 GB
Genre: Jazz


ALBUM
[Tienes que estar registrado y conectado para ver este vínculo] Weather Report (1971)

[Tienes que estar registrado y conectado para ver este vínculo] I Sing The Body Electric (1972)

[Tienes que estar registrado y conectado para ver este vínculo] Live in Tokyo (1972) 2CD

[Tienes que estar registrado y conectado para ver este vínculo] Sweetnighter (1973)

[Tienes que estar registrado y conectado para ver este vínculo] Mysterious Traveller (1974)

[Tienes que estar registrado y conectado para ver este vínculo] Tale Spinnin (1975)

[Tienes que estar registrado y conectado para ver este vínculo] Black Market (1976)

[Tienes que estar registrado y conectado para ver este vínculo] Heavy Weather (1977)

[Tienes que estar registrado y conectado para ver este vínculo] Mr. Gone (1978)

[Tienes que estar registrado y conectado para ver este vínculo] 8.30 (1979) 2CD

[Tienes que estar registrado y conectado para ver este vínculo] Night Passage (1980)

[Tienes que estar registrado y conectado para ver este vínculo] Weather Report (1982)

[Tienes que estar registrado y conectado para ver este vínculo] Procession (1983)

[Tienes que estar registrado y conectado para ver este vínculo] Domino Theory (1984)

[Tienes que estar registrado y conectado para ver este vínculo] Sportin Life (1985)

[Tienes que estar registrado y conectado para ver este vínculo] This Is This (1986)



[Tienes que estar registrado y conectado para ver este vínculo]
por campitoso
el Jue Oct 05, 2017 9:11 am
 
Buscar en: Música & MP3
Argumento: Weather Report Discography [1971-1986]
Respuestas: 0
Vistos: 59

Atonement [2007] FullHD 1080p [Ing-Lat]




Titulo original: Atonement
Ano: 2007
Duracion: 123 min.
Pais: Reino Unido
Director: Joe Wright
Reparto: Keira Knightley, James McAvoy, Romola Garai, Saoirse Ronan, Vanessa Redgrave, Brenda Blethyn, Harriet Walter, Patrick Kennedy, Benedict Cumberbatch, Juno Temple, Daniel Mays, Jeremie Renier, Michelle Duncan, Gina McKee
Productora: Coproduccion Reino Unido-USA; Working Title Films / Universal Pictures / Studio Canal / Relativity Media
Genero: Romance. Drama. Belico | Drama Romantico. II Guerra Mundial. Cine epico
Sinopsis: En el verano de 1935, Briony Tallis (Saoirse Ronan), una precoz escritora de 13 anos, cambia irremediablemente el curso de varias vidas al acusar a Robbie Turner (James McAvoy), el amante de su hermana Cecilia (Keira Knightley), de un crimen que no ha cometido.
[Tienes que estar registrado y conectado para ver este vínculo]
Trailer



General
Unique ID : 183454482832810555499676228591899485611 (0x8A040C564F3B22938EB5978525EDA5AB)
Complete name : Atonement (2007) 1080p BDRip Dual.mkv
Format : Matroska
Format version : Version 4 / Version 2
File size : 11,9 GB
Duration : 2 h 2 min
Movie name : Atonement (2007)
Encoded date : UTC 2017-09-15 08:33:27
Writing application : mkvmerge v15.0.0 (Duel with the Devil) 64-bit
Writing library : libebml v1.3.5 + libmatroska v1.4.5
IsTruncated : Yes
Video
ID : 1
Format : AVC
Format/Info : Advanced Video Codec
Format profile : High@L4.1
Format settings, CABAC : Yes
Format settings, ReFrames : 4 frames
Codec ID : V_MPEG4/ISO/AVC
Duration : 2 h 2 min
Nominal bit rate : 11.6 Mb/s
Width : 1 920 pixels
Height : 1 040 pixels
Display aspect ratio : 1.85:1
Frame rate mode : Constant
Frame rate : 23.976 (24000/1001) FPS
Color space : YUV
Chroma subsampling : 4:2:0
Bit depth : 8 bits
Scan type : Progressive
Bits/(Pixel*Frame) : 0.241
Title : MPEG-4 AVC / 1080p / High Profile 4.1 / 11600 kbps / Bluray
Writing library : x264 core 120 r2164 da19765
Default : Yes
Forced : No
Audio [Tienes que estar registrado y conectado para ver este vínculo]
ID : 2
Format : DTS
Format/Info : Digital Theater Systems
Mode : 16
Format settings, Endianness : Big
Codec ID : A_DTS
Duration : 2 h 2 min
Bit rate mode : Constant
Bit rate : 1 509 kb/s
Channel(s) : 6 channels
Channel positions : Front: L C R, Side: L R, LFE
Sampling rate : 48.0 kHz
Frame rate : 93.750 FPS (512 spf)
Bit depth : 24 bits
Compression mode : Lossy
Stream size : 1.30 GiB
Title : DTS / 5.1 / 1509 kbps / 48kHz / Bluray
Language : English
Default : No
Forced : No
Audio [Tienes que estar registrado y conectado para ver este vínculo]
ID : 3
Format : DTS
Format/Info : Digital Theater Systems
Mode : 16
Format settings, Endianness : Big
Codec ID : A_DTS
Duration : 2 h 2 min
Bit rate mode : Constant
Bit rate : 768 kb/s
Channel(s) : 6 channels
Channel positions : Front: L C R, Side: L R, LFE
Sampling rate : 48.0 kHz
Frame rate : 93.750 FPS (512 spf)
Bit depth : 24 bits
Compression mode : Lossy
Stream size : 675 MiB
Title : DTS / 5.1 / 768 kbps / 48kHz / Bluray
Language : Spanish latin
Default : Yes
Forced : No
Text [Tienes que estar registrado y conectado para ver este vínculo]
ID : 4
Format : PGS
Muxing mode : zlib
Codec ID : S_HDMV/PGS
Codec ID/Info : Picture based subtitle format used on BDs/HD-DVDs
Title :(CC) / PGS / Bluray
Language : English
Default : No
Forced : No
Text [Tienes que estar registrado y conectado para ver este vínculo]
ID : 5
Format : UTF-8
Codec ID : S_TEXT/UTF8
Codec ID/Info : UTF-8 Plain Text
Title : (CC) / SubRip / Bluray
Language : English
Default : No
Forced : No
Text [Tienes que estar registrado y conectado para ver este vínculo]
ID : 6
Format : PGS
Muxing mode : zlib
Codec ID : S_HDMV/PGS
Codec ID/Info : Picture based subtitle format used on BDs/HD-DVDs
Title : PGS / Bluray
Language : Spanish latin
Default : No
Forced : No
Text [Tienes que estar registrado y conectado para ver este vínculo]
ID : 7
Format : UTF-8
Codec ID : S_TEXT/UTF8
Codec ID/Info : UTF-8 Plain Text
Title : SubRip / Bluray
Language : Spanish latin
Default : No
Forced : No
Text [Tienes que estar registrado y conectado para ver este vínculo]
ID : 8
Format : PGS
Muxing mode : zlib
Codec ID : S_HDMV/PGS
Codec ID/Info : Picture based subtitle format used on BDs/HD-DVDs
Title : (Forz) / PGS / Bluray
Language : Spanish latin
Default : No
Forced : No
Text [Tienes que estar registrado y conectado para ver este vínculo]
ID : 9
Format : UTF-8
Codec ID : S_TEXT/UTF8
Codec ID/Info : UTF-8 Plain Text
Title : (Forz) / SubRip / Bluray
Language : Spanish latin
Default : Yes
Forced : No







[Tienes que estar registrado y conectado para ver este vínculo]
por campitoso
el Mar Sep 19, 2017 7:52 am
 
Buscar en: Descargar Peliculas
Argumento: Atonement [2007] FullHD 1080p [Ing-Lat]
Respuestas: 0
Vistos: 64

6 COSAS QUE NO DEBES BUSCAR EN GOOGLE



[Tienes que estar registrado y conectado para ver este vínculo] Hambruna
[Tienes que estar registrado y conectado para ver este vínculo] Tripofobia
[Tienes que estar registrado y conectado para ver este vínculo] Yuko Tatshushima
[Tienes que estar registrado y conectado para ver este vínculo] Tortura China

Creditos:MASTERCRACKSAM
por ForCD
el Dom Jul 12, 2015 10:24 pm
 
Buscar en: YouTube
Argumento: 6 COSAS QUE NO DEBES BUSCAR EN GOOGLE
Respuestas: 0
Vistos: 224

Volver arriba

Cambiar a: