ForoComunidad
Bienvenido a ForoComunidad

Un foro donde podrás descargar todo tipo de contenido totalmente gratis tan solo registrandote , encontraras descargas de películas,juegos pc.aplicaciones android,programas,windows y mucho mas. Te invito a unirte a nuestra comunidad, también puedes compartir con nosotros tu mejor contenido (post)

REGISTRATE Y COMIENZA A DESCARGAR

Tarzan [2013] 3D H-SBS 1080p [Ing-Lat]

Ir abajo

Tarzan [2013] 3D H-SBS 1080p [Ing-Lat]

Mensaje por campitoso el Lun Nov 06, 2017 10:30 pm




TITULO ORIGINAL: Tarzan
ANO: 2013
DURACION: 94 min.
PAIS: Alemania
DIRECTOR: Reinhard Klooss
GUION: Reinhard Klooss, Jessica Postigo, Yoni Brenner (Novela: Edgar Rice Burroughs
REPARTO: Animation, Kellan Lutz, Spencer Locke
PRODUCTORA: Constantin Film
GENERO: Animacion. Aventuras | Tarzan. 3-D
[Tienes que estar registrado y conectado para ver este vínculo]
Sinopsis: La madre del Presidente Lincoln es asesinada por una criatura sobrenatural, hecho que alimenta su pasion por acabar con los vampiros y todos sus aliados.
Sinopsis: Nueva version de Tarzan", mitico personaje literario ideado por Edgar Rice Burroughs. En la pelicula se nos muestra a los padres de Tarzan (Kellan Lutz) como unos millonarios aventureros que fallecen en un accidente de avion, mientras que, de villano del relato, nos encontraremos con el director general de Greystoke Energies, quien se hace con el control de la compania tras la muerte de aquellos. Jane es la hija de un guia de Africa y trabaja para preservar la selva de dicho continente. Por supuesto, se aliara con Tarzan para enfrentarse al ejercito de mercenarios de Greystoke Energies.
Trailer
[Tienes que estar registrado y conectado para ver este vínculo]



General
Format : Matroska
Format version : Version 3 / Version 2
File size : 6.99 GiB
Duration : 1h 34mn
Overall bit rate : 10.6 Mbps
Encoded date : UTC 2014-06-13 02:04:06
Writing application : mkvmerge v5.7.0 (The Whirlwind) built on Jul 8 2012 20:08:51
Writing library : libebml v1.2.3 + libmatroska v1.3.0
Video
ID : 1
Format : AVC
Format/Info : Advanced Video Codec
Format profile : High@L4.1
MultiView_Count : 2
MultiView_Layout : Side by Side (left eye first)
Format settings, CABAC : Yes
Format settings, ReFrames : 4 frames
Muxing mode : Header stripping
Codec ID : V_MPEG4/ISO/AVC
Duration : 1h 34mn
Bit rate : 7 625 Kbps
Width : 1 920 pixels
Height : 1 080 pixels
Display aspect ratio : 16:9
Frame rate mode : Constant
Frame rate : 23.976 fps
Color space : YUV
Chroma subsampling : 4:2:0
Bit depth : 8 bits
Scan type : Progressive
Bits/(Pixel*Frame) : 0.153
Stream size : 5.01 GiB (72%)
Writing library : x264 core 142 r2389 956c8d8
Language : English
Default : Yes
Forced : No
Audio [Tienes que estar registrado y conectado para ver este vínculo]
ID : 2
Format : AC-3
Format/Info : Audio Coding 3
Mode extension : CM (complete main)
Format settings, Endianness : Big
Muxing mode : Header stripping
Codec ID : A_AC3
Duration : 1h 34mn
Bit rate mode : Constant
Bit rate : 640 Kbps
Channel(s) : 6 channels
Channel positions : Front: L C R, Side: L R, LFE
Sampling rate : 48.0 KHz
Bit depth : 16 bits
Compression mode : Lossy
Stream size : 431 MiB (6%)
Title : AC3 5.1
Language : Spanish
Default : Yes
Forced : No
Audio [Tienes que estar registrado y conectado para ver este vínculo]
ID : 3
Format : AC-3
Format/Info : Audio Coding 3
Mode extension : CM (complete main)
Format settings, Endianness : Big
Muxing mode : Header stripping
Codec ID : A_AC3
Duration : 1h 34mn
Bit rate mode : Constant
Bit rate : 640 Kbps
Channel(s) : 6 channels
Channel positions : Front: L C R, Side: L R, LFE
Sampling rate : 48.0 KHz
Bit depth : 16 bits
Compression mode : Lossy
Stream size : 431 MiB (6%)
Title : AC3 5.1
Language : English
Default : No
Forced : No
Audio [Tienes que estar registrado y conectado para ver este vínculo]
ID : 4
Format : DTS
Format/Info : Digital Theater Systems
Mode : 16
Format settings, Endianness : Big
Muxing mode : Header stripping
Codec ID : A_DTS
Duration : 1h 34mn
Bit rate mode : Constant
Bit rate : 1 509 Kbps
Channel(s) : 6 channels
Channel positions : Front: L C R, Side: L R, LFE
Sampling rate : 48.0 KHz
Bit depth : 24 bits
Compression mode : Lossy
Delay relative to video : 11ms
Stream size : 1 016 MiB (14%)
Title : DTS 5.1
Language : English
Default : No
Forced : No
Text
ID : 5
Format : VobSub
Muxing mode : zlib
Codec ID : S_VOBSUB
Codec ID/Info : The same subtitle format used on DVDs
Language : Spanish
Default : No
Forced : No







Buy Premium Account To Get High Speed Download
[Tienes que estar registrado y conectado para ver este vínculo]

campitoso
FULL MASTER FOROCOMUNIDAD
FULL MASTER FOROCOMUNIDAD

Mensajes : 2123
Reputación : 0
Fecha de inscripción : 13/06/2017

Volver arriba Ir abajo

Volver arriba

- Temas similares

 
Permisos de este foro:
No puedes responder a temas en este foro.