ForoComunidad
Bienvenido a ForoComunidad

Un foro donde podrás descargar todo tipo de contenido totalmente gratis tan solo registrandote , encontraras descargas de películas,juegos pc.aplicaciones android,programas,windows y mucho mas. Te invito a unirte a nuestra comunidad, también puedes compartir con nosotros tu mejor contenido (post)

REGISTRATE Y COMIENZA A DESCARGAR


SIGUENOS EN YOUTUBE:

https://www.youtube.com/c/XeelinG

The Avengers Age of Ultron [2015] 3D H-SBS 1080p [Ing-Lat]

Ir abajo

The Avengers Age of Ultron [2015] 3D H-SBS 1080p [Ing-Lat]

Mensaje por campitoso el Vie Nov 03, 2017 6:23 pm




Titulo original: The Avengers: Age of Ultron (The Avengers 2)
Ano: 2015
Duracion: 141 min.
Pais: Estados Unidos
Director: Joss Whedon
Guion: Joss Whedon (Comic: Stan Lee, Jack Kirby)
Musica: Brian Tyler
Fotografia: Ben Davis
Reparto: Robert Downey Jr., Chris Evans, Chris Hemsworth, Scarlett Johansson, Jeremy Renner, Mark Ruffalo, Alexis Denisof, James Spader, Aaron Johnson, Paul Bettany, Elizabeth Olsen, Thomas Kretschmann, Josh Brolin, Samuel L. Jackson, Hayley Atwell, Don Cheadle, Claudia Kim, Andy Serkis, Idris Elba, Anthony Mackie, Stan Lee
Productora: Marvel Studios
Genero: Fantastico. Accion. Ciencia ficcion. Aventuras | Superheroes. Comic. Marvel Comics. Secuela. 3-D
Sinopsis: Cuando Tony Stark intenta reactivar un programa caido en desuso cuyo objetivo es mantener la paz, las cosas empiezan a torcerse y los heroes mas poderosos de la Tierra, incluyendo a Iron Man, Capitan America, Thor, El Increible Hulk, Viuda Negra y Ojo de Halcon, tendran que afrontar la prueba definitiva cuando el destino del planeta se ponga en juego. Cuando el villano Ultron emerge, le correspondera a Los Vengadores detener sus terribles planes, que junto a incomodas alianzas llevaran a una inesperada accion que allanara el camino para una epica y unica aventura
[Tienes que estar registrado y conectado para ver este vínculo]
Trailer
[Tienes que estar registrado y conectado para ver este vínculo]



General
Format : Matroska
Format version : Version 4 / Version 2
File size : 12.2 GiB
Duration : 2h 21mn
Overall bit rate : 12.3 Mbps
Encoded date : UTC 2015-10-01 21:08:25
Writing application : mkvmerge v7.1.0 (Good Love) 64bit built on Jul 27 2014 13:06:55
Writing library : libebml v1.3.0 + libmatroska v1.4.1
Video
ID : 1
Format : AVC
Format/Info : Advanced Video Codec
Format profile : High@L4.1
Format settings, CABAC : Yes
Format settings, ReFrames : 5 frames
Codec ID : V_MPEG4/ISO/AVC
Duration : 2h 21mn
Bit rate : 9 563 Kbps
Width : 1 920 pixels
Height : 808 pixels
Display aspect ratio : 2.40:1
Frame rate mode : Constant
Frame rate : 23.976 fps
Color space : YUV
Chroma subsampling : 4:2:0
Bit depth : 8 bits
Scan type : Progressive
Bits/(Pixel*Frame) : 0.257
Stream size : 9.19 GiB (75%)
Writing library : x264 core 148 r2597 e86f3a1
Language : English
Default : Yes
Forced : No
Audio [Tienes que estar registrado y conectado para ver este vínculo]
ID : 2
Format : AC-3
Format/Info : Audio Coding 3
Mode extension : CM (complete main)
Format settings, Endianness : Big
Codec ID : A_AC3
Duration : 2h 21mn
Bit rate mode : Constant
Bit rate : 640 Kbps
Channel(s) : 6 channels
Channel positions : Front: L C R, Side: L R, LFE
Sampling rate : 48.0 KHz
Bit depth : 16 bits
Compression mode : Lossy
Stream size : 647 MiB (5%)
Title :Ac3 5.1 [BluRay]
Language : Spanish
Default : Yes
Forced : No
Audio [Tienes que estar registrado y conectado para ver este vínculo]
ID : 3
Format : AC-3
Format/Info : Audio Coding 3
Mode extension : CM (complete main)
Format settings, Endianness : Big
Codec ID : A_AC3
Duration : 2h 21mn
Bit rate mode : Constant
Bit rate : 640 Kbps
Channel(s) : 6 channels
Channel positions : Front: L C R, Side: L R, LFE
Sampling rate : 48.0 KHz
Bit depth : 16 bits
Compression mode : Lossy
Stream size : 647 MiB (5%)
Title : AC3 5.1
Language : English
Default : No
Forced : No
Audio [Tienes que estar registrado y conectado para ver este vínculo]
ID : 4
Format : DTS
Format/Info : Digital Theater Systems
Mode : 16
Format settings, Endianness : Big
Codec ID : A_DTS
Duration : 2h 21mn
Bit rate mode : Constant
Bit rate : 1 509 Kbps
Channel(s) : 6 channels
Channel positions : Front: L C R, Side: L R, LFE
Sampling rate : 48.0 KHz
Bit depth : 24 bits
Compression mode : Lossy
Stream size : 1.49 GiB (12%)
Title : DTS 5.1
Language : English
Default : No
Forced : No
Text
ID : 5
Format : UTF-8
Codec ID : S_TEXT/UTF8
Codec ID/Info : UTF-8 Plain Text
Language : Spanish
Default : No
Forced : No







Buy Premium Account To Get High Speed Download
[Tienes que estar registrado y conectado para ver este vínculo]

campitoso
FULL MASTER FOROCOMUNIDAD
FULL MASTER FOROCOMUNIDAD

Mensajes : 2123
Reputación : 0
Fecha de inscripción : 13/06/2017

Volver arriba Ir abajo

Volver arriba

- Temas similares

 
Permisos de este foro:
No puedes responder a temas en este foro.