ForoComunidad
Bienvenido a ForoComunidad

Un foro donde podrás descargar todo tipo de contenido totalmente gratis tan solo registrandote , encontraras descargas de películas,juegos pc.aplicaciones android,programas,windows y mucho mas. Te invito a unirte a nuestra comunidad, también puedes compartir con nosotros tu mejor contenido (post)

REGISTRATE Y COMIENZA A DESCARGAR

SAW V [2008] FullHD 1080p [Ing-Lat]

Ir abajo

SAW V [2008] FullHD 1080p [Ing-Lat]

Mensaje por campitoso el Vie Nov 03, 2017 4:47 pm




Título original: Saw V
Año: 2008
Duración: 1 h 35 min
País: Estados Unidos
Director: David Hackl
Guión: Marcus Dunstan, Patrick Melton
Música: Charlie Clouser
Fotografía: David A. Armstrong
Reparto: Tobin Bell, Scott Patterson, Costas Mandylor, Betsy Russell, Mark Rolston, Julie Benz, Meagan Good, Greg Bryk, Carlo Rota, Laura Gordon, Mike Butters, Al Sapienza
Productora:Lionsgate Films / Twisted Pictures
Género: Terror | Gore. Secuela. Asesinos en serie. Secuestros / Desapariciones
Sinopsis: Hoffman (Costas Mandylor) es la última persona viva para heredar el legado de Jigsaw (Tobin Bell). Pero cuando su secreto se ve amenazado, Hoffman debe iniciar la caza para eliminar todos los cabos sueltos. Nueva entrega de la saga dirigida por el diseñador de producción de las tres anteriores.
[Tienes que estar registrado y conectado para ver este vínculo]
Trailer
[Tienes que estar registrado y conectado para ver este vínculo]



Format : Matroska
Format version : Version 4 / Version 2
File size : 13.9 GiB
Duration : 1 h 35 min
Overall bit rate : 21.0 Mb/s
Encoded date : UTC 2017-09-15 02:37:01
Writing application : mkvmerge v15.0.0 ('Duel with the Devil') 64-bit
Writing library : libebml v1.3.5 + libmatroska v1.4.5
Video
ID : 1
Format : AVC
Format/Info : Advanced Video Codec
Format profile : High@L4.1
Format settings, CABAC : Yes
Format settings, ReFrames : 4 frames
Codec ID : V_MPEG4/ISO/AVC
Duration : 1 h 35 min
Bit rate : 15.5 Mb/s
Width : 1 920 pixels
Height : 1 080 pixels
Display aspect ratio : 16:9
Frame rate mode : Constant
Frame rate : 23.976 (24000/1001) FPS
Color space : YUV
Chroma subsampling : 4:2:0
Bit depth : 8 bits
Scan type : Progressive
Bits/(Pixel*Frame) : 0.312
Stream size : 10.3 GiB (74%)
Title : SAW V (2008) UNRATED 1080p
Writing library : x264 core 148 r2579 73ae2d1
Language : English
Default : Yes
Forced : No
Color range : Limited
Color primaries : BT.709
Transfer characteristics : BT.709
Matrix coefficients : BT.709
Audio [Tienes que estar registrado y conectado para ver este vínculo]
ID : 2
Format : AC-3
Format/Info : Audio Coding 3
Mode extension : CM (complete main)
Format settings, Endianness : Big
Codec ID : A_AC3
Duration : 1 h 35 min
Bit rate mode : Constant
Bit rate : 448 kb/s
Channel(s) : 6 channels
Channel positions : Front: L C R, Side: L R, LFE
Sampling rate : 48.0 kHz
Frame rate : 31.250 FPS (1536 spf)
Bit depth : 16 bits
Compression mode : Lossy
Stream size : 305 MiB (2%)
Title : Latin-AC 3-(5.1) DVD
Language : Spanish
Default : Yes
Forced : No
Audio [Tienes que estar registrado y conectado para ver este vínculo]
ID : 3
Format : DTS
Format/Info : Digital Theater Systems
Format profile : MA / Core
Mode : 16
Format settings, Endianness : Big
Codec ID : A_DTS
Duration : 1 h 35 min
Bit rate mode : Variable / Constant
Bit rate : 5 050 kb/s / 1 509 kb/s
Channel(s) : 8 channels / 6 channels
Channel positions : Front: L C R, Side: L R, Back: L R, LFE / Front: L C R, Side: L R, LFE
Sampling rate : 48.0 kHz
Frame rate : 93.750 FPS (512 spf)
Bit depth : 24 bits
Compression mode : Lossless / Lossy
Stream size : 3.35 GiB (24%)
Title : DTS HD MA-(7.1) BluRay
Language : English
Default : No
Forced : No
Text
ID : 4
Format : UTF-8
Codec ID : S_TEXT/UTF8
Codec ID/Info : UTF-8 Plain Text
Duration : 1 h 27 min
Bit rate : 44 b/s
Count of elements : 826
Stream size : 28.9 KiB (0%)
Language : Spanish
Default : No
Forced : No





Buy Premium Account To Get High Speed Download
[Tienes que estar registrado y conectado para ver este vínculo]

campitoso
FULL MASTER FOROCOMUNIDAD
FULL MASTER FOROCOMUNIDAD

Mensajes : 2123
Reputación : 0
Fecha de inscripción : 13/06/2017

Volver arriba Ir abajo

Volver arriba

- Temas similares

 
Permisos de este foro:
No puedes responder a temas en este foro.