ForoComunidad
Bienvenido a ForoComunidad

Un foro donde podrás descargar todo tipo de contenido totalmente gratis tan solo registrandote , encontraras descargas de películas,juegos pc.aplicaciones android,programas,windows y mucho mas. Te invito a unirte a nuestra comunidad, también puedes compartir con nosotros tu mejor contenido (post)

REGISTRATE Y COMIENZA A DESCARGAR


SIGUENOS EN YOUTUBE:

https://www.youtube.com/c/XeelinG

Los ilusionautas [2012] 3D H-SBS 1080p [Lat]

Ir abajo

Los ilusionautas [2012] 3D H-SBS 1080p [Lat]

Mensaje por campitoso el Vie Nov 03, 2017 12:21 pm




TITULO ORIGINAL: Los ilusionautas
ANO: 2012
PAIS: Peru
DIRECTOR: Eduardo Schuldt
[Tienes que estar registrado y conectado para ver este vínculo]
GUION: Kathy Borland, Abraham Vurnbrand
REPARTO: Animation
PRODUCTORA: Aronnax Animation Studios
GENERO: Animacion. Fantastico. Aventuras | 3-D
Sinopsis: Cuando un experimento secreto sale mal y las historias de un escritor de ciencia ficcion se mezclan, el gobierno frances tiene que convocar a un grupo de 4 ninos acompanados de un perrito, para ingresar a la imaginacion del escritor y resolver el desastre literario. Una pelicula llena de aventuras, �con poca ciencia y mucha ficcion�.
Trailer
[Tienes que estar registrado y conectado para ver este vínculo]



General
Format : Matroska
Format version : Version 2
File size : 7.57 GiB
Duration : 1h 21mn
Overall bit rate : 13.3 Mbps
Encoded date : UTC 2013-07-02 21:53:58
Writing application : mkvmerge v5.7.0 ('The Whirlwind') built on Jul 8 2012 20:08:51
Writing library : libebml v1.2.3 + libmatroska v1.3.0
Video
ID : 1
Format : AVC
Format/Info : Advanced Video Codec
Format profile : High@L4.1
Format settings, CABAC : Yes
Format settings, ReFrames : 2 frames
Codec ID : V_MPEG4/ISO/AVC
Duration : 1h 21mn
Bit rate : 12.5 Mbps
Width : 1 920 pixels
Height : 1 080 pixels
Display aspect ratio : 16:9
Frame rate mode : Constant
Frame rate : 23.976 fps
Color space : YUV
Chroma subsampling : 4:2:0
Bit depth : 8 bits
Scan type : Progressive
Bits/(Pixel*Frame) : 0.252
Stream size : 7.17 GiB (95%)
Writing library : x264 core
Language : English
Default : Yes
Forced : No
Color primaries : BT.709
Transfer characteristics : BT.709
Matrix coefficients : BT.709
Audio
ID : 2
Format : AC-3
Format/Info : Audio Coding 3
Mode extension : CM (complete main)
Format settings, Endianness : Big
Codec ID : A_AC3
Duration : 1h 21mn
Bit rate mode : Constant
Bit rate : 448 Kbps
Channel(s) : 6 channels
Channel positions : Front: L C R, Side: L R, LFE
Sampling rate : 48.0 KHz
Bit depth : 16 bits
Compression mode : Lossy
Stream size : 262 MiB (3%)
Language : Spanish
Default : Yes
Forced : No







Buy Premium Account To Get High Speed Download
[Tienes que estar registrado y conectado para ver este vínculo]

campitoso
FULL MASTER FOROCOMUNIDAD
FULL MASTER FOROCOMUNIDAD

Mensajes : 2123
Reputación : 0
Fecha de inscripción : 13/06/2017

Volver arriba Ir abajo

Volver arriba


 
Permisos de este foro:
No puedes responder a temas en este foro.