ForoComunidad
Bienvenido a ForoComunidad

Un foro donde podrás descargar todo tipo de contenido totalmente gratis tan solo registrandote , encontraras descargas de películas,juegos pc.aplicaciones android,programas,windows y mucho mas. Te invito a unirte a nuestra comunidad, también puedes compartir con nosotros tu mejor contenido (post)

REGISTRATE Y COMIENZA A DESCARGAR

Guardians of the Galaxy Vol 2 [2017] FullHD 1080p [Ing-Lat]

Ir abajo

Guardians of the Galaxy Vol 2 [2017] FullHD 1080p [Ing-Lat]

Mensaje por campitoso el Vie Nov 03, 2017 11:57 am




Titulo original: Guardians of the Galaxy Vol. 2
Ano: 2017
Duracion: 137 min.
Pais: Estados Unidos
Director: James Gunn
Reparto: Chris Pratt, Zoe Saldana, Dave Bautista, Bradley Cooper, Vin Diesel, Kurt Russell, Michael Rooker, Karen Gillan, Elizabeth Debicki, Tommy Flanagan, Sean Gunn, Pom Klementieff, Chris Sullivan, Sylvester Stallone, Stan Lee
Productora: Marvel Studios / Walt Disney Pictures
Genero: Ciencia ficcion. Aventuras. Accion. Comedia | Aventura espacial. Superheroes. Comic. Marvel Comics. Secuela. 3-D
Sinopsis: Continuan las aventuras del equipo en su travesia por los confines del cosmos. Los Guardianes deberan luchar para mantener unida a su nueva familia mientras intentan resolver el misterio de los verdaderos origenes de Peter Quill. Viejos rivales se convertiran en nuevos aliados, y queridos personajes de los comics clasicos acudiran en ayuda de nuestros heroes a medida que el universo cinematografico de Marvel continua expandiendose.
[Tienes que estar registrado y conectado para ver este vínculo]
Trailer
[Tienes que estar registrado y conectado para ver este vínculo]



General
Format : Matroska
Format version : Version 4 / Version 2
File size : 10.4 GiB
Duration : 2 h 15 min
Overall bit rate : 11.0 Mb/s
Movie name : Guardians of the Galaxy Vol. 2 (2017) 1080p
Encoded date : UTC 2017-08-08 23:24:14
Writing application : mkvmerge v9.9.0 (Pick Up) 64bit
Writing library : libebml v1.3.4 + libmatroska v1.4.5
Video
ID : 1
Format : AVC
Format/Info : Advanced Video Codec
Format profile : High@L4.1
Format settings, CABAC : Yes
Format settings, ReFrames : 5 frames
Codec ID : V_MPEG4/ISO/AVC
Duration : 2 h 15 min
Bit rate : 8 865 kb/s
Width : 1 920 pixels
Height : 808 pixels
Display aspect ratio : 2.40:1
Frame rate mode : Constant
Frame rate : 23.976 FPS
Color space : YUV
Chroma subsampling : 4:2:0
Bit depth : 8 bits
Scan type : Progressive
Bits/(Pixel*Frame) : 0.238
Stream size : 8.41 GiB (80%)
Title : Guardians of the Galaxy Vol. 2 (2017) 1080p
Writing library : x264 core 150 r2833 df79067
Language : English
Default : Yes
Forced : No
Audio [Tienes que estar registrado y conectado para ver este vínculo]
ID : 2
Format : AC-3
Format/Info : Audio Coding 3
Mode extension : CM (complete main)
Format settings, Endianness : Big
Codec ID : A_AC3
Duration : 2 h 15 min
Bit rate mode : Constant
Bit rate : 640 kb/s
Channel(s) : 6 channels
Channel positions : Front: L C R, Side: L R, LFE
Sampling rate : 48.0 kHz
Frame rate : 31.250 FPS (1536 spf)
Bit depth : 16 bits
Compression mode : Lossy
Stream size : 622 MiB (6%)
Title : AC3 5.1 Bluray
Language : Spanish
Default : Yes
Forced : No
Audio [Tienes que estar registrado y conectado para ver este vínculo]
ID : 3
Format : DTS
Format/Info : Digital Theater Systems
Mode : 16
Format settings, Endianness : Big
Codec ID : A_DTS
Duration : 2 h 15 min
Bit rate mode : Constant
Bit rate : 1 509 kb/s
Channel(s) : 6 channels
Channel positions : Front: L C R, Side: L R, LFE
Sampling rate : 48.0 kHz
Frame rate : 93.750 FPS (512 spf)
Bit depth : 24 bits
Compression mode : Lossy
Stream size : 1.43 GiB (14%)
Title : DTS
Language : English
Default : No
Forced : No
Text [Tienes que estar registrado y conectado para ver este vínculo]
ID : 4
Format : UTF-8
Codec ID : S_TEXT/UTF8
Codec ID/Info : UTF-8 Plain Text
Duration : 2 h 6 min
Bit rate : 1 b/s
Count of elements : 29
Stream size : 1 013 Bytes (0%)
Title : Subt_Forz
Language : Spanish
Default : Yes
Forced : No
Text [Tienes que estar registrado y conectado para ver este vínculo]
ID : 5
Format : UTF-8
Codec ID : S_TEXT/UTF8
Codec ID/Info : UTF-8 Plain Text
Duration : 2 h 14 min
Bit rate : 48 b/s
Count of elements : 1604
Stream size : 47.9 KiB (0%)
Title : Subt_Compl
Language : Spanish
Default : No
Forced : No







Buy Premium Account To Get High Speed Download
[Tienes que estar registrado y conectado para ver este vínculo]

campitoso
FULL MASTER FOROCOMUNIDAD
FULL MASTER FOROCOMUNIDAD

Mensajes : 2123
Reputación : 0
Fecha de inscripción : 13/06/2017

Volver arriba Ir abajo

Volver arriba

- Temas similares

 
Permisos de este foro:
No puedes responder a temas en este foro.