ForoComunidad
Bienvenido a ForoComunidad

Un foro donde podrás descargar todo tipo de contenido totalmente gratis tan solo registrandote , encontraras descargas de películas,juegos pc.aplicaciones android,programas,windows y mucho mas. Te invito a unirte a nuestra comunidad, también puedes compartir con nosotros tu mejor contenido (post)

REGISTRATE Y COMIENZA A DESCARGAR

ParaNorman [2012] 3D H-SBS 1080p [Ing-Lat]

Ir abajo

ParaNorman [2012] 3D H-SBS 1080p [Ing-Lat]

Mensaje por campitoso el Sáb Oct 28, 2017 8:49 pm




TITULO ORIGINAL: ParaNorman
ANO: 2012
DURACION: 92 min.
PAIS: USA
DIRECTOR: Chris Butler, Sam Fell
[Tienes que estar registrado y conectado para ver este vínculo]
GUION: Chris Butler
REPARTO: Animation
PRODUCTORA: Focus Features / LAIKA
GENERO: Animacion. Fantastico. Comedia | Comedia de terror. Zombis. Stop Motion. 3-D
SINOPSIS: Los aterrorizados habitantes de un pueblo asediado por zombis solo pueden pedir ayuda al incomprendido Norman, un joven que sabe hablar con los muertos. Pero este, para salvar a su pueblo de una antigua maldicion, no solo tendra' que enfrentarse con zombis, sino tambien con brujas y, sobre todo, con un grupo de adultos subnormales.
[Tienes que estar registrado y conectado para ver este vínculo]



General
Format : Matroska
Format version : Version 2
File size : 9.18 GiB
Duration : 1h 32mn
Overall bit rate : 14.2 Mbps
Encoded date : UTC 2012-12-18 21:35:20
Writing application : mkvmerge v5.7.0 ('The Whirlwind') built on Jul 8 2012 20:08:51
Writing library : libebml v1.2.3 + libmatroska v1.3.0
Video
ID : 1
Format : AVC
Format/Info : Advanced Video Codec
Format profile : High@L4.1
Format settings, CABAC : Yes
Format settings, ReFrames : 2 frames
Codec ID : V_MPEG4/ISO/AVC
Duration : 1h 32mn
Bit rate : 11.2 Mbps
Width : 1 920 pixels
Height : 1 080 pixels
Display aspect ratio : 16:9
Frame rate mode : Constant
Frame rate : 23.976 fps
Color space : YUV
Chroma subsampling : 4:2:0
Bit depth : 8 bits
Scan type : Progressive
Bits/(Pixel*Frame) : 0.225
Stream size : 7.20 GiB (78%)
Writing library : x264 core
Language : English
Default : Yes
Forced : No
Color primaries : BT.709
Transfer characteristics : BT.709
Matrix coefficients : BT.709
Audio [Tienes que estar registrado y conectado para ver este vínculo]
ID : 2
Format : AC-3
Format/Info : Audio Coding 3
Mode extension : CM (complete main)
Format settings, Endianness : Big
Codec ID : A_AC3
Duration : 1h 32mn
Bit rate mode : Constant
Bit rate : 640 Kbps
Channel(s) : 6 channels
Channel positions : Front: L C R, Side: L R, LFE
Sampling rate : 48.0 KHz
Bit depth : 16 bits
Compression mode : Lossy
Stream size : 422 MiB (4%)
Title : AC3 5.1
Language : Spanish
Default : Yes
Forced : No
Audio [Tienes que estar registrado y conectado para ver este vínculo]
ID : 3
Format : AC-3
Format/Info : Audio Coding 3
Mode extension : CM (complete main)
Format settings, Endianness : Big
Codec ID : A_AC3
Duration : 1h 32mn
Bit rate mode : Constant
Bit rate : 640 Kbps
Channel(s) : 6 channels
Channel positions : Front: L C R, Side: L R, LFE
Sampling rate : 48.0 KHz
Bit depth : 16 bits
Compression mode : Lossy
Stream size : 422 MiB (4%)
Title : AC3 5.1
Language : English
Default : No
Forced : No
Audio [Tienes que estar registrado y conectado para ver este vínculo]
ID : 4
Format : DTS
Format/Info : Digital Theater Systems
Mode : 16
Format settings, Endianness : Big
Codec ID : A_DTS
Duration : 1h 32mn
Bit rate mode : Constant
Bit rate : 1 509 Kbps
Channel(s) : 6 channels
Channel positions : Front: L C R, Side: L R, LFE
Sampling rate : 48.0 KHz
Bit depth : 24 bits
Compression mode : Lossy
Delay relative to video : 11ms
Stream size : 996 MiB (11%)
Title : DTS 5.1
Language : English
Default : No
Forced : No
Text [Tienes que estar registrado y conectado para ver este vínculo]
ID : 5
Format : UTF-8
Codec ID : S_TEXT/UTF8
Codec ID/Info : UTF-8 Plain Text
Title : Forzados
Language : Spanish
Default : Yes
Forced : No
Text [Tienes que estar registrado y conectado para ver este vínculo]
ID : 6
Format : UTF-8
Codec ID : S_TEXT/UTF8
Codec ID/Info : UTF-8 Plain Text
Language : Spanish
Default : No
Forced : No
Text [Tienes que estar registrado y conectado para ver este vínculo]
ID : 7
Format : UTF-8
Codec ID : S_TEXT/UTF8
Codec ID/Info : UTF-8 Plain Text
Language : English
Default : No
Forced : No





Buy Premium Account To Get High Speed Download
[Tienes que estar registrado y conectado para ver este vínculo]

campitoso
FULL MASTER FOROCOMUNIDAD
FULL MASTER FOROCOMUNIDAD

Mensajes : 2123
Reputación : 0
Fecha de inscripción : 13/06/2017

Volver arriba Ir abajo

Volver arriba

- Temas similares

 
Permisos de este foro:
No puedes responder a temas en este foro.