ForoComunidad
Bienvenido a ForoComunidad

Un foro donde podrás descargar todo tipo de contenido totalmente gratis tan solo registrandote , encontraras descargas de películas,juegos pc.aplicaciones android,programas,windows y mucho mas. Te invito a unirte a nuestra comunidad, también puedes compartir con nosotros tu mejor contenido (post)

REGISTRATE Y COMIENZA A DESCARGAR


SIGUENOS EN YOUTUBE:

https://www.youtube.com/c/XeelinG

Assassins Creed [2016] 3D H-SBS 1080p [Ing-Lat]

Ir abajo

Assassins Creed [2016] 3D H-SBS 1080p [Ing-Lat]

Mensaje por campitoso el Sáb Oct 28, 2017 11:35 am




Titulo original: Assassins Creed
Ano: 2016
Duracion: 115 min.
Pais: Estados Unidos
Director: Justin Kurzel
Reparto: Michael Fassbender, Marion Cotillard, Jeremy Irons, Charlotte Rampling, Brendan Gleeson, Michael Kenneth Williams, Ariane Labed, Brian Gleeson, Carlos Bardem, Hovik Keuchkerian, Javier Gutierrez, Matias Varela, Denis Menochet, Mohammed Ali, Dino Fazzani, Gabriel Andreu, Megan Affonso
Productora: 20th Century Fox / Regency Enterprises / DMC Film / Ubisoft
Genero: Aventuras. Accion. Ciencia ficcion | Viajes en el tiempo. Siglo XV. Videojuego
Sinopsis: Gracias a una tecnologia revolucionaria que permite el acceso a los recuerdos geneticos, Callum Lynch (Michael Fassbender) revive las aventuras de Aguilar, un antepasado suyo que vivio en la Espana del siglo XV. Asi descubre que es descendiente de una misteriosa organizacion secreta, los Assassins, y que posee las habilidades y los conocimientos necesarios para enfrentarse a la poderosa y temible organizacion de los Templarios en la epoca actual. Adaptacion libre del videojuego homonimo.
[Tienes que estar registrado y conectado para ver este vínculo]
Trailer
[Tienes que estar registrado y conectado para ver este vínculo]



General
Format : Matroska
Format version : Version 4 / Version 2
File size : 14.5 GiB
Duration : 1 h 55 min
Overall bit rate : 17.9 Mb/s
Movie name : Assassins Creed (2016) 3D H-SBS 1080p
Encoded date : UTC 2017-03-18 23:13:05
Writing application : mkvmerge v9.9.0 (Pick Up) 64bit
Writing library : libebml v1.3.4 + libmatroska v1.4.5
Video
ID : 1
Format : AVC
Format/Info : Advanced Video Codec
Format profile : High@L4.1
Format settings, CABAC : Yes
Format settings, ReFrames : 2 frames
Codec ID : V_MPEG4/ISO/AVC
Duration : 1 h 55 min
Bit rate : 15.5 Mb/s
Width : 1 920 pixels
Height : 1 080 pixels
Display aspect ratio : 16:9
Frame rate mode : Constant
Frame rate : 23.976 (24000/1001) FPS
Color space : YUV
Chroma subsampling : 4:2:0
Bit depth : 8 bits
Scan type : Progressive
Bits/(Pixel*Frame) : 0.312
Stream size : 12.5 GiB (87%)
Title : Assassins Creed (2016) 3D H-SBS 1080p
Language : English
Default : Yes
Forced : No
Audio [Tienes que estar registrado y conectado para ver este vínculo]
ID : 2
Format : AC-3
Format/Info : Audio Coding 3
Mode extension : CM (complete main)
Format settings, Endianness : Big
Codec ID : A_AC3
Duration : 1 h 55 min
Bit rate mode : Constant
Bit rate : 448 kb/s
Channel(s) : 6 channels
Channel positions : Front: L C R, Side: L R, LFE
Sampling rate : 48.0 kHz
Frame rate : 31.250 FPS (1536 spf)
Bit depth : 16 bits
Compression mode : Lossy
Stream size : 370 MiB (2%)
Title : AC3 5.1 Bluray
Language : Spanish
Default : Yes
Forced : No
Audio [Tienes que estar registrado y conectado para ver este vínculo]
ID : 3
Format : DTS
Format/Info : Digital Theater Systems
Mode : 16
Format settings, Endianness : Big
Codec ID : A_DTS
Duration : 1 h 55 min
Bit rate mode : Constant
Bit rate : 1 509 kb/s
Channel(s) : 6 channels
Channel positions : Front: L C R, Side: L R, LFE
Sampling rate : 48.0 kHz
Frame rate : 93.750 FPS (512 spf)
Bit depth : 24 bits
Compression mode : Lossy
Stream size : 1.22 GiB (8%)
Title : DTS
Language : English
Default : No
Forced : No
Audio [Tienes que estar registrado y conectado para ver este vínculo]
ID : 4
Format : AC-3
Format/Info : Audio Coding 3
Mode extension : CM (complete main)
Format settings, Endianness : Big
Codec ID : A_AC3
Duration : 1 h 55 min
Bit rate mode : Constant
Bit rate : 448 kb/s
Channel(s) : 6 channels
Channel positions : Front: L C R, Side: L R, LFE
Sampling rate : 48.0 kHz
Frame rate : 31.250 FPS (1536 spf)
Bit depth : 16 bits
Compression mode : Lossy
Stream size : 370 MiB (2%)
Title : AC3 5.1
Language : English
Default : No
Forced : No
Text [Tienes que estar registrado y conectado para ver este vínculo]
ID : 5
Format : UTF-8
Codec ID : S_TEXT/UTF8
Codec ID/Info : UTF-8 Plain Text
Duration : 1 h 30 min
Bit rate : 0 b/s
Count of elements : 11
Stream size : 484 Bytes (0%)
Title : Subt_Forz
Language : Spanish
Default : Yes
Forced : No
Text [Tienes que estar registrado y conectado para ver este vínculo]
ID : 6
Format : UTF-8
Codec ID : S_TEXT/UTF8
Codec ID/Info : UTF-8 Plain Text
Duration : 1 h 38 min
Bit rate : 21 b/s
Count of elements : 566
Stream size : 15.8 KiB (0%)
Title : Subt_Complet
Language : Spanish
Default : No
Forced : No







Buy Premium Account To Get High Speed Download
[Tienes que estar registrado y conectado para ver este vínculo]

campitoso
FULL MASTER FOROCOMUNIDAD
FULL MASTER FOROCOMUNIDAD

Mensajes : 2123
Reputación : 0
Fecha de inscripción : 13/06/2017

Volver arriba Ir abajo

Volver arriba

- Temas similares

 
Permisos de este foro:
No puedes responder a temas en este foro.