ForoComunidad
Bienvenido a ForoComunidad

Un foro donde podrás descargar todo tipo de contenido totalmente gratis tan solo registrandote , encontraras descargas de películas,juegos pc.aplicaciones android,programas,windows y mucho mas. Te invito a unirte a nuestra comunidad, también puedes compartir con nosotros tu mejor contenido (post)

REGISTRATE Y COMIENZA A DESCARGAR


SIGUENOS EN YOUTUBE:

https://www.youtube.com/c/XeelinG

The Indian In The Cupboard [1995] FullHD 1080p [Ing-Lat]

Ir abajo

The Indian In The Cupboard [1995] FullHD 1080p [Ing-Lat]

Mensaje por campitoso el Vie Oct 20, 2017 10:49 pm




Título original: The Indian in the Cupboard
Año: 1995
Duración: 96 min.
País: Estados Unidos Estados Unidos
Director: Frank Oz
Guion: Melissa Mathison (Novela: Lynne Reid Banks)
Música: Randy Edelman
Fotografía: Russell Carpenter
Reparto: Hal Scardino, Litefoot, Lindsay Crouse, Richard Jenkins, Rishi Bhat, Steve Coogan, David Keith, Sakina Jaffrey, Vincent Kartheiser, Nestor Serrano, Ryan Olson: Productora: Paramount Pictures
Género: Infantil. Fantástico | Cine familiar
Sinopsis: Cuando cumple nueve años, Omri solo recibe regalos convencionales. Sin embargo, descubrirá que dos de ellos, los que, a primera vista, parecen menos interesantes, tienen un carácter mágico, gracias al cual Omri vivirá emocionantes aventuras.
[Tienes que estar registrado y conectado para ver este vínculo]
Trailer



General
Complete name : The Indian In The Cupboard (1995).mkv
Format : Matroska
Format version : Version 4 / Version 2
File size : 4.95 GiB
Duration : 1 h 36 min
Overall bit rate : 7 374 kb/s
Movie name : [Tienes que estar registrado y conectado para ver este vínculo]
Encoded date : UTC 2017-09-23 18:27:56
Writing application : mkvmerge v9.9.0 ('Pick Up') 64bit
Writing library : libebml v1.3.4 + libmatroska v1.4.5
Video
ID : 1
Format : AVC
Format/Info : Advanced Video Codec
Format profile : High@L4.1
Format settings, CABAC : Yes
Format settings, ReFrames : 9 frames
Codec ID : V_MPEG4/ISO/AVC
Duration : 1 h 36 min
Bit rate : 6 800 kb/s
Width : 1 280 pixels
Height : 674 pixels
Display aspect ratio : 1.899
Frame rate mode : Constant
Frame rate : 23.976 (24000/1001) FPS
Color space : YUV
Chroma subsampling : 4:2:0
Bit depth : 8 bits
Scan type : Progressive
Bits/(Pixel*Frame) : 0.329
Stream size : 4.56 GiB (92%)
Writing library : x264 core 142 r2389 956c8d8
Language : English
Default : Yes
Forced : No
Audio [Tienes que estar registrado y conectado para ver este vínculo]
ID : 2
Format : AC-3
Format/Info : Audio Coding 3
Format profile : Dolby Digital
Mode extension : CM (complete main)
Format settings, Endianness : Big
Codec ID : A_AC3
Duration : 1 h 36 min
Bit rate mode : Constant
Bit rate : 192 kb/s
Channel(s) : 2 channels
Channel positions : Front: L R
Sampling rate : 48.0 kHz
Frame rate : 31.250 FPS (1536 spf)
Bit depth : 16 bits
Compression mode : Lossy
Delay relative to video : 250 ms
Stream size : 132 MiB (3%)
Language : Latin
Default : Yes
Forced : No
Audio [Tienes que estar registrado y conectado para ver este vínculo]
ID : 3
Format : AC-3
Format/Info : Audio Coding 3
Mode extension : CM (complete main)
Format settings, Endianness : Big
Codec ID : A_AC3
Duration : 1 h 36 min
Bit rate mode : Constant
Bit rate : 384 kb/s
Channel(s) : 6 channels
Channel positions : Front: L C R, Side: L R, LFE
Sampling rate : 48.0 kHz
Frame rate : 31.250 FPS (1536 spf)
Bit depth : 16 bits
Compression mode : Lossy
Stream size : 264 MiB (5%)
Language : English
Default : No
Forced : No
Text
ID : 4
Format : UTF-8
Codec ID : S_TEXT/UTF8
Codec ID/Info : UTF-8 Plain Text
Duration : 1 h 30 min
Bit rate : 36 b/s
Count of elements : 703
Stream size : 23.9 KiB (0%)
Language : Spanish
Default : No
Forced : No






[Tienes que estar registrado y conectado para ver este vínculo]

campitoso
FULL MASTER FOROCOMUNIDAD
FULL MASTER FOROCOMUNIDAD

Mensajes : 2123
Reputación : 0
Fecha de inscripción : 13/06/2017

Volver arriba Ir abajo

Volver arriba

- Temas similares

 
Permisos de este foro:
No puedes responder a temas en este foro.