ForoComunidad
Bienvenido a ForoComunidad

Un foro donde podrás descargar todo tipo de contenido totalmente gratis tan solo registrandote , encontraras descargas de películas,juegos pc.aplicaciones android,programas,windows y mucho mas. Te invito a unirte a nuestra comunidad, también puedes compartir con nosotros tu mejor contenido (post)

REGISTRATE Y COMIENZA A DESCARGAR


SIGUENOS EN YOUTUBE:

https://www.youtube.com/c/XeelinG

Taxi [2004] FullHD 1080p [Ing-Lat]

Ir abajo

Taxi [2004] FullHD 1080p [Ing-Lat]

Mensaje por campitoso el Vie Oct 20, 2017 9:12 pm




Título original: Taxi
Año: 2004
Duración: 97 min.
País: Estados Unidos
Director: Tim Story
Reparto: Queen Latifah, Jimmy Fallon, Gisele Bundchen, Jennifer Esposito, Ann-Margret, Henry Simmons, Christian Kane, Ana Cristina de Oliveira, Adrian Martínez, GQ, Ingrid Vandebosch, Magali Amadei, Boris McGiver, Joe Lisi, Bryna Weiss, Patton Oswalt, John Krasinski
Productora: 20th Century Fox / Europacorp / Robert Simonds Productions
Género: Comedia. Acción | Remake
Sinopsis: Belle (Queen Latifah) es un diablo de la velocidad. Yendo a toda pastilla por las calles de Nueva York en su taxi "tuneado", se ha ganado la reputación de ser la taxista más rápida de la ciudad. Su sueño de ser campeona de coches de carreras se ve en peligro cuando se cruza en su camino un espídico policía, Andy (Jimmy Fallon), cuyas habilidades secretas sólo tiene parangón con su total ineptitud detrás del volante. Remake del exitoso film francés de mismo título de Luc Besson.
[Tienes que estar registrado y conectado para ver este vínculo]
Trailer



General

Format : Matroska
Format version : Version 4 / Version 2
File size : 6.76 GiB
Duration : 1 h 37 min
Overall bit rate : 9 957 kb/s
Movie name : Taxi (2004) 1080p
Encoded date : UTC 2017-09-23 13:59:23
Writing application : mkvmerge v15.0.0 ('Duel with the Devil') 64-bit
Writing library : libebml v1.3.5 + libmatroska v1.4.5
Video
ID : 1
Format : AVC
Format/Info : Advanced Video Codec
Format profile : High@L4.1
Format settings, CABAC : Yes
Format settings, ReFrames : 4 frames
Codec ID : V_MPEG4/ISO/AVC
Duration : 1 h 37 min
Bit rate : 8 000 kb/s
Width : 1 920 pixels
Height : 816 pixels
Display aspect ratio : 2.35:1
Frame rate mode : Constant
Frame rate : 23.976 (24000/1001) FPS
Color space : YUV
Chroma subsampling : 4:2:0
Bit depth : 8 bits
Scan type : Progressive
Bits/(Pixel*Frame) : 0.213
Stream size : 5.43 GiB (80%)
Title : Taxi (2004) 1080p
Writing library : x264 core 148 r2708 86b7198
Language : English
Default : Yes
Forced : No
Color range : Limited
Color primaries : BT.709
Transfer characteristics : BT.709
Matrix coefficients : BT.709
Audio [Tienes que estar registrado y conectado para ver este vínculo]
ID : 2
Format : AC-3
Format/Info : Audio Coding 3
Mode extension : CM (complete main)
Format settings, Endianness : Big
Codec ID : A_AC3
Duration : 1 h 37 min
Bit rate mode : Constant
Bit rate : 448 kb/s
Channel(s) : 6 channels
Channel positions : Front: L C R, Side: L R, LFE
Sampling rate : 48.0 kHz
Frame rate : 31.250 FPS (1536 spf)
Bit depth : 16 bits
Compression mode : Lossy
Stream size : 311 MiB (4%)
Title : AC3 5.1 Bluray
Language : Spanish
Default : Yes
Forced : No
Audio [Tienes que estar registrado y conectado para ver este vínculo]
ID : 3
Format : DTS
Format/Info : Digital Theater Systems
Mode : 16
Format settings, Endianness : Big
Codec ID : A_DTS
Duration : 1 h 37 min
Bit rate mode : Constant
Bit rate : 1 509 kb/s
Channel(s) : 6 channels
Channel positions : Front: L C R, Side: L R, LFE
Sampling rate : 48.0 kHz
Frame rate : 93.750 FPS (512 spf)
Bit depth : 24 bits
Compression mode : Lossy
Stream size : 1.02 GiB (15%)
Title : DTS
Language : English
Default : No
Forced : No
Text [Tienes que estar registrado y conectado para ver este vínculo]
ID : 4
Format : UTF-8
Codec ID : S_TEXT/UTF8
Codec ID/Info : UTF-8 Plain Text
Duration : 14 min 22 s
Bit rate : 0 b/s
Count of elements : 3
Stream size : 90.0 Bytes (0%)
Title : Subtit_Forz
Language : Spanish
Default : Yes
Forced : No
Text [Tienes que estar registrado y conectado para ver este vínculo]
ID : 5
Format : UTF-8
Codec ID : S_TEXT/UTF8
Codec ID/Info : UTF-8 Plain Text
Duration : 1 h 31 min
Bit rate : 56 b/s
Count of elements : 1137
Stream size : 37.5 KiB (0%)
Title : Subtits_Compl
Language : Spanish
Default : No
Forced : No






[Tienes que estar registrado y conectado para ver este vínculo]

campitoso
FULL MASTER FOROCOMUNIDAD
FULL MASTER FOROCOMUNIDAD

Mensajes : 2123
Reputación : 0
Fecha de inscripción : 13/06/2017

Volver arriba Ir abajo

Volver arriba

- Temas similares

 
Permisos de este foro:
No puedes responder a temas en este foro.