ForoComunidad
Bienvenido a ForoComunidad

Un foro donde podrás descargar todo tipo de contenido totalmente gratis tan solo registrandote , encontraras descargas de películas,juegos pc.aplicaciones android,programas,windows y mucho mas. Te invito a unirte a nuestra comunidad, también puedes compartir con nosotros tu mejor contenido (post)

REGISTRATE Y COMIENZA A DESCARGAR

Running Scared [2006] FullHD 1080p [Ing-Lat]

Ir abajo

Running Scared [2006] FullHD 1080p [Ing-Lat]

Mensaje por campitoso el Vie Oct 20, 2017 7:12 pm




Título original: Running Scared
Año: 2006
Duración: 122 min.
País: Estados Unidos
Director: Wayne Kramer
Reparto: Paul Walker, Cameron Bright, Vera Farmiga, Chazz Palminteri, Karel Roden, Johnny Messner, Ivana Milicevic, Elizabeth Mitchell, John Noble, Michael Cudlitz, Alex Neuberger, Bruce Altman, Arthur J. Nascarella
Productora: New Line Cinema
Género: Thriller | Mafia. Neo-noir
Sinopsis: Nueva Jersey. Joey Gazelle (Paul Walker), hombre casado y padre de familia, lleva 10 años siendo sicario de la banda italiana de los Perello. Sin embargo, cuando Joey, desobedeciendo las instrucciones de la banda, se niega a deshacerse del arma utilizada en el asesinato de un policía corrupto durante una operación fallida de venta de drogas, coloca involuntariamente a su familia en una situación peligrosa.
[Tienes que estar registrado y conectado para ver este vínculo]
Trailer



General
Format : Matroska
Format version : Version 4 / Version 2
File size : 8.27 GiB
Duration : 2 h 2 min
Overall bit rate : 9 702 kb/s
Movie name : Running Scared (2006) 1080p
Encoded date : UTC 2017-08-29 19:16:54
Writing application : mkvmerge v9.9.0 ('Pick Up') 64bit
Writing library : libebml v1.3.4 + libmatroska v1.4.5
Video
ID : 1
Format : AVC
Format/Info : Advanced Video Codec
Format profile : High@L4.1
Format settings, CABAC : Yes
Format settings, ReFrames : 4 frames
Codec ID : V_MPEG4/ISO/AVC
Duration : 2 h 2 min
Bit rate : 8 000 kb/s
Width : 1 920 pixels
Height : 816 pixels
Display aspect ratio : 2.35:1
Frame rate mode : Constant
Frame rate : 23.976 (24000/1001) FPS
Color space : YUV
Chroma subsampling : 4:2:0
Bit depth : 8 bits
Scan type : Progressive
Bits/(Pixel*Frame) : 0.213
Stream size : 6.82 GiB (82%)
Title : Running Scared (2006) 1080p
Writing library : x264 core 148 r2708 86b7198
Language : English
Default : Yes
Forced : No
Color range : Limited
Color primaries : BT.709
Transfer characteristics : BT.709
Matrix coefficients : BT.709
Audio [Tienes que estar registrado y conectado para ver este vínculo]
ID : 2
Format : AC-3
Format/Info : Audio Coding 3
Mode extension : CM (complete main)
Format settings, Endianness : Big
Codec ID : A_AC3
Duration : 2 h 1 min
Bit rate mode : Constant
Bit rate : 192 kb/s
Channel(s) : 2 channels
Channel positions : Front: L R
Sampling rate : 48.0 kHz
Frame rate : 31.250 FPS (1536 spf)
Bit depth : 16 bits
Compression mode : Lossy
Delay relative to video : 20 s 0 ms
Stream size : 167 MiB (2%)
Title : AC3 2.0 DVD
Language : Spanish
Default : Yes
Forced : No
Audio [Tienes que estar registrado y conectado para ver este vínculo]
ID : 3
Format : DTS
Format/Info : Digital Theater Systems
Mode : 16
Format settings, Endianness : Big
Codec ID : A_DTS
Duration : 2 h 2 min
Bit rate mode : Constant
Bit rate : 1 510 kb/s
Channel(s) : 6 channels
Channel positions : Front: L C R, Side: L R, LFE
Sampling rate : 48.0 kHz
Frame rate : 93.750 FPS (512 spf)
Bit depth : 24 bits
Compression mode : Lossy
Stream size : 1.29 GiB (16%)
Title : DTS
Language : English
Default : No
Forced : No
Text
ID : 4
Format : UTF-8
Codec ID : S_TEXT/UTF8
Codec ID/Info : UTF-8 Plain Text
Duration : 1 h 52 min
Bit rate : 58 b/s
Count of elements : 1372
Stream size : 48.6 KiB (0%)
Title : Subtit_Compl
Language : Spanish
Default : No
Forced : No






[Tienes que estar registrado y conectado para ver este vínculo]

campitoso
FULL MASTER FOROCOMUNIDAD
FULL MASTER FOROCOMUNIDAD

Mensajes : 2123
Reputación : 0
Fecha de inscripción : 13/06/2017

Volver arriba Ir abajo

Volver arriba

- Temas similares

 
Permisos de este foro:
No puedes responder a temas en este foro.