ForoComunidad
Bienvenido a ForoComunidad

Un foro donde podrás descargar todo tipo de contenido totalmente gratis tan solo registrandote , encontraras descargas de películas,juegos pc.aplicaciones android,programas,windows y mucho mas. Te invito a unirte a nuestra comunidad, también puedes compartir con nosotros tu mejor contenido (post)

REGISTRATE Y COMIENZA A DESCARGAR


SIGUENOS EN YOUTUBE:

https://www.youtube.com/c/XeelinG

Lady and the Tramp [1955] Director's Cut FullHD 1080p [Ing-Lat]

Ir abajo

Lady and the Tramp [1955] Director's Cut FullHD 1080p [Ing-Lat]

Mensaje por campitoso el Vie Oct 20, 2017 6:24 pm




TÍTULO ORIGINAL: Lady and the Tramp
AÑO: 1955
DURACIÓN: 75 min.
PAÍS: USA
DIRECTOR: Clyde Geronimi, Hamilton Luske, Wilfred Jackson
GUIÓN: Erdman Penner, Joe Rinaldi, Ralph Wright, Don DaGradi
REPARTO: Animation
PRODUCTORA: Walt Disney Pictures
GÉNERO: Animación. Infantil | Perros/Lobos
Sinopsis: Reina es una preciosa perrita de pura raza que vive feliz en su hogar. Isabel y Jaime, la miman mucho y ella corresponde feliz a sus cuidados. Sin embargo, el día en que sus dueños deciden hacer un viaje, la vida de Reina se ve alterada; la llegada de la tía Clara con sus gatos no provoca más que sobresaltos. Menos mal que conoce a Golfo, un perro vagabundo muy simpático
[Tienes que estar registrado y conectado para ver este vínculo]
Trailer



General
Format : Matroska
Format version : Version 2
File size : 3.08 GiB
Duration : 1h 16mn
Overall bit rate : 5 773 Kbps
Encoded date : UTC 2013-07-19 02:34:57
Writing application : mkvmerge v5.7.0 ('The Whirlwind') built on Jul 8 2012 20:08:51
Writing library : libebml v1.2.3 + libmatroska v1.3.0
Video
ID : 1
Format : AVC
Format/Info : Advanced Video Codec
Format profile : Main@L4.0
Format settings, CABAC : Yes
Format settings, ReFrames : 4 frames
Codec ID : V_MPEG4/ISO/AVC
Duration : 1h 16mn
Bit rate : 4 500 Kbps
Width : 1 920 pixels
Height : 1 080 pixels
Display aspect ratio : 16:9
Frame rate mode : Constant
Frame rate : 23.976 fps
Color space : YUV
Chroma subsampling : 4:2:0
Bit depth : 8 bits
Scan type : Progressive
Bits/(Pixel*Frame) : 0.091
Stream size : 2.34 GiB (76%)
Writing library : x264 core 112
Language : English
Default : Yes
Forced : No
Color primaries : BT.709
Transfer characteristics : BT.709
Matrix coefficients : BT.709
Audio [Tienes que estar registrado y conectado para ver este vínculo]
ID : 2
Format : AC-3
Format/Info : Audio Coding 3
Mode extension : CM (complete main)
Format settings, Endianness : Big
Codec ID : A_AC3
Duration : 1h 16mn
Bit rate mode : Constant
Bit rate : 640 Kbps
Channel(s) : 6 channels
Channel positions : Front: L C R, Side: L R, LFE
Sampling rate : 48.0 KHz
Bit depth : 16 bits
Compression mode : Lossy
Stream size : 350 MiB (11%)
Language : latin Spanish
Default : Yes
Forced : No
Audio [Tienes que estar registrado y conectado para ver este vínculo]
ID : 3
Format : AC-3
Format/Info : Audio Coding 3
Mode extension : CM (complete main)
Format settings, Endianness : Big
Codec ID : A_AC3
Duration : 1h 16mn
Bit rate mode : Constant
Bit rate : 640 Kbps
Channel(s) : 6 channels
Channel positions : Front: L C R, Side: L R, LFE
Sampling rate : 48.0 KHz
Bit depth : 16 bits
Compression mode : Lossy
Stream size : 350 MiB (11%)
Language : English
Default : No
Forced : No
Text
ID : 4
Format : UTF-8
Codec ID : S_TEXT/UTF8
Codec ID/Info : UTF-8 Plain Text
Language : Spanish
Default : No
Forced : No






[Tienes que estar registrado y conectado para ver este vínculo]

campitoso
FULL MASTER FOROCOMUNIDAD
FULL MASTER FOROCOMUNIDAD

Mensajes : 2123
Reputación : 0
Fecha de inscripción : 13/06/2017

Volver arriba Ir abajo

Volver arriba

- Temas similares

 
Permisos de este foro:
No puedes responder a temas en este foro.