ForoComunidad
Bienvenido a ForoComunidad

Un foro donde podrás descargar todo tipo de contenido totalmente gratis tan solo registrandote , encontraras descargas de películas,juegos pc.aplicaciones android,programas,windows y mucho mas. Te invito a unirte a nuestra comunidad, también puedes compartir con nosotros tu mejor contenido (post)

REGISTRATE Y COMIENZA A DESCARGAR













Comparte
Ver el tema anteriorIr abajoVer el tema siguiente
campitoso
FULL MASTER FOROCOMUNIDAD
FULL MASTER FOROCOMUNIDAD
Mensajes : 1783
Reputación : 0
Fecha de inscripción : 13/06/2017

The Martian [2015] 3D H-SBS 1080p [Ing-Lat]

el Jue Oct 12, 2017 4:16 am



Titulo original: The Martian
Ano: 2015
Duracion: 142 min.
Pais: Estados Unidos
Director: Ridley Scott
Guion: Drew Goddard (Novela: Andy Weir)
Musica: Harry Gregson-Williams
Fotografia: Dariusz Wolski
Reparto: Matt Damon, Jessica Chastain, Chiwetel Ejiofor, Jeff Daniels, Kate Mara, Michael Pena, Sean Bean, Kristen Wiig, Sebastian Stan, Aksel Hennie, Benedict Wong, Mackenzie Davis, Donald Glover, Mark ONeal, Brian Caspe, Chen Shu, Eddy Ko
Productora: Twentieth Century Fox / Scott Free
Genero: Ciencia ficcion. Drama | Aventura espacial. Supervivencia. 3-D
Sinopsis: Durante una mision tripulada a Marte, el astronauta Mark Watney es dado por muerto tras una terrible tormenta y abandonado por la tripulacion, que pone rumbo de vuelta a la Tierra. Pero Watney ha sobrevivido y se encuentra atrapado y solo en el hostil planeta rojo. Con suministros escasos, debera recurrir a su ingenio y a su instinto de supervivencia para encontrar la manera de comunicar a la Tierra que sigue vivo.
[Tienes que estar registrado y conectado para ver este vínculo]


General
Format : Matroska
Format version : Version 4 / Version 2
File size : 12.2 GiB
Duration : 2h 21mn
Overall bit rate : 12.3 Mbps
Encoded date : UTC 2016-01-02 12:36:39
Writing application : mkvmerge v7.1.0 (Good Love) 64bit built on Jul 27 2014 13:06:55
Writing library : libebml v1.3.0 + libmatroska v1.4.1
DURATION : 02:21:37.656000000
NUMBER_OF_FRAMES : 203740
NUMBER_OF_BYTES : 10314748113
_STATISTICS_WRITING_APP : mkvmerge v7.1.0 (Good Love) 64bit built on Jul 27 2014 13:06:55
_STATISTICS_WRITING_DATE_UTC : 2016-01-02 12:36:39
_STATISTICS_TAGS : BPS DURATION NUMBER_OF_FRAMES NUMBER_OF_BYTES
Video
ID : 1
Format : AVC
Format/Info : Advanced Video Codec
Format profile : High@L4.1
Format settings, CABAC : Yes
Format settings, ReFrames : 2 frames
Codec ID : V_MPEG4/ISO/AVC
Duration : 2h 21mn
Bit rate : 9 469 Kbps
Width : 1 920 pixels
Height : 800 pixels
Display aspect ratio : 2.40:1
Frame rate mode : Constant
Frame rate : 23.976 fps
Color space : YUV
Chroma subsampling : 4:2:0
Bit depth : 8 bits
Scan type : Progressive
Bits/(Pixel*Frame) : 0.257
Stream size : 9.37 GiB (77%)
Writing library : x264 core
Language : English
Default : Yes
Forced : No
Color primaries : BT.709
Transfer characteristics : BT.709
Matrix coefficients : BT.709
Audio [Tienes que estar registrado y conectado para ver este vínculo]
ID : 2
Format : AC-3
Format/Info : Audio Coding 3
Mode extension : CM (complete main)
Format settings, Endianness : Big
Codec ID : A_AC3
Duration : 2h 21mn
Bit rate mode : Constant
Bit rate : 448 Kbps
Channel(s) : 6 channels
Channel positions : Front: L C R, Side: L R, LFE
Sampling rate : 48.0 KHz
Bit depth : 16 bits
Compression mode : Lossy
Stream size : 454 MiB (4%)
Title : AC3 5.1 Bluray
Language : Spanish
Default : Yes
Forced : No
Audio [Tienes que estar registrado y conectado para ver este vínculo]
ID : 3
Format : AC-3
Format/Info : Audio Coding 3
Mode extension : CM (complete main)
Format settings, Endianness : Big
Codec ID : A_AC3
Duration : 2h 21mn
Bit rate mode : Constant
Bit rate : 640 Kbps
Channel(s) : 6 channels
Channel positions : Front: L C R, Side: L R, LFE
Sampling rate : 48.0 KHz
Bit depth : 16 bits
Compression mode : Lossy
Stream size : 648 MiB (5%)
Title : AC3 5.1
Language : English
Default : No
Forced : No
Audio [Tienes que estar registrado y conectado para ver este vínculo]
ID : 4
Format : DTS
Format/Info : Digital Theater Systems
Mode : 16
Format settings, Endianness : Big
Codec ID : A_DTS
Duration : 2h 21mn
Bit rate mode : Constant
Bit rate : 1 509 Kbps
Channel(s) : 6 channels
Channel positions : Front: L C R, Side: L R, LFE
Sampling rate : 48.0 KHz
Bit depth : 24 bits
Compression mode : Lossy
Stream size : 1.49 GiB (12%)
Title : DTS 5.1
Language : English
Default : No
Forced : No
Text [Tienes que estar registrado y conectado para ver este vínculo]
ID : 5
Format : UTF-8
Codec ID : S_TEXT/UTF8
Codec ID/Info : UTF-8 Plain Text
Title : Forz
Language : Spanish
Default : Yes
Forced : No
Text [Tienes que estar registrado y conectado para ver este vínculo]
ID : 6
Format : UTF-8
Codec ID : S_TEXT/UTF8
Codec ID/Info : UTF-8 Plain Text
Title : Complet
Language : Spanish
Default : No
Forced : No








Buy Premium Account To Get High Speed Download
[Tienes que estar registrado y conectado para ver este vínculo]
Ver el tema anteriorVolver arribaVer el tema siguiente
Permisos de este foro:
No puedes responder a temas en este foro.